Первый удар / First Strike (1996) HDRip-AVC | P

 
Автор Сообщение

Russian Mafia ®

Пол:

Стаж: 1 год 8 месяцев

Сообщений: 4255



Награды: 10 (Подробнее)

Mega Seeder 4 (Количество: 1) Mega Seeder 3 (Количество: 1) За внесенный вклад в развитие сайта (Количество: 1)
Торрент-статистика

Создавать темы 27-Окт-2015 06:14

[Цитировать]

Информация о фильме
Название: Первый удар
Оригинальное название: First Strike
Год выхода: 1996
Жанр: Боевик, триллер, комедия, приключения
Режиссер: Стэнли Тонг
В ролях: Джеки Чан, Энни Ву, Джексон Лиу, Билл Тунг, Юрий Петров, Алан Сит
О фильме:
Агенту ЦРУ Джеки поручают следить за шпионкой Наташей, которая купила тур на Украину. Джеки надеется выследить, с кем будет контактировать девушка, но она скрывается. Джеки бросается в погоню. Он гонится за ней по Австралии и России. Главная его задача – остаться в живых и поймать Тсуи, сообщника Наташи, похитившего ядерную боеголовку. Тсуи оказывается ее любовником, бывшим сотрудником ЦРУ. Его завербовал сотрудник КГБ Егоров, лидер русской мафии.

Страна: New Line Cinema / США, Гонконг
Продолжительность: 01:23:50
Перевод: Профессиональный(многоголосый закадровый R5)
Файл
Кодек: MPEG-4 AVC
Качество: HDRip-AVC
Видео: High@L4.1, ~5 694 Kbps, 1028х424
Звук: AC3, 6 ch, 448 Кбит/с
Субтитры: Отсутствуют--

M/I

General
Unique ID : 233283996817230707422202790497835274596 (0xAF80DD0E71EF747E7FEEF75BF403D164)
Complete name : D:КИНОПервый удар.(1996).HDRIP_AVC.[-=DoMino=-].mkv
Format : Matroska
Format version : Version 4 / Version 2
File size : 3.67 GiB
Duration : 1h 23mn
Overall bit rate : 6 267 Kbps
Movie name : Первый удар
Writing application : XviD4PSP 7.0.177
Writing library : Lavf56.25.101
ORIGINAL_TITLE : Ging chaat goo si 4: Ji gaan daan yam mo
DATE : 1995
GENRE : боевик, триллер, драма, комедия, криминал, приключения
ENCODING_INFO : MATROSKA,WEBM > MKV / H264 > X264 CRF 18.0 Custom / AC3 > COPY
SYNOPSIS : Агенту ЦРУ Джеки поручают следить за шпионкой Наташей, которая купила тур на Украину. Джеки надеется выследить, с кем будет контактировать девушка, но она скрывается. Джеки бросается в погоню. Он гонится за ней по Австралии и России. Главная его задача — остаться в живых и поймать Тсуи, сообщника Наташи, похитившего ядерную боеголовку. Тсуи оказывается ее любовником, бывшим сотрудником ЦРУ. Его завербовал сотрудник КГБ Егоров, лидер русской мафии.
ITUNEXTC : mpaa|PG-13|300|
ACTORS : Джеки Чан, Джексон Лью, Энни Ву, Билл Тун, Юрий Петров, Нонна Гришаева, Джон Ивис, Терри Ву, Кристофер Казмарек, Эйлен Сит, показать всех
DIRECTOR : Стэнли Тонг
PRODUCER : Барби Танг, Павел Дувидзон, Леонард Хо
WRITER : Грег Меллот, Эллиот Тонг, Стэнли Тонг
COUNTRY : США, Австралия, Гонконг
RATING : 7.175
IMDB_RATING : 6.60
Language : und
FILENAME : cover.png
Attachements : cover.png
Video
ID : 1
Format : AVC
Format/Info : Advanced Video Codec
Format profile : High@L4.1
Format settings, CABAC : Yes
Format settings, ReFrames : 12 frames
Codec ID : V_MPEG4/ISO/AVC
Duration : 1h 23mn
Bit rate : 5 694 Kbps
Width : 1 028 pixels
Height : 424 pixels
Display aspect ratio : 2.40:1
Frame rate mode : Constant
Frame rate : 23.976 fps
Color space : YUV
Chroma subsampling : 4:2:0
Bit depth : 8 bits
Scan type : Progressive
Bits/(Pixel*Frame) : 0.545
Stream size : 3.33 GiB (91%)
Writing library : x264 core 148 r2597M e86f3a1
Encoding settings : cabac=1 / ref=12 / deblock=1:-3:-3 / analyse=0x3:0x133 / me=umh / subme=10 / psy=1 / psy_rd=1.00:0.10 / mixed_ref=1 / me_range=32 / chroma_me=1 / trellis=2 / 8x8dct=1 / cqm=0 / deadzone=21,11 / fast_pskip=0 / chroma_qp_offset=-3 / threads=5 / lookahead_threads=1 / sliced_threads=0 / nr=0 / decimate=1 / interlaced=0 / bluray_compat=0 / constrained_intra=0 / bframes=11 / b_pyramid=2 / b_adapt=2 / b_bias=0 / direct=1 / weightb=1 / open_gop=0 / weightp=2 / keyint=230 / keyint_min=23 / scenecut=40 / intra_refresh=0 / rc=crf / mbtree=0 / crf=18.0 / qcomp=0.60 / qpmin=19 / qpmax=69 / qpstep=4 / ip_ratio=1.40 / pb_ratio=1.30 / aq=1:1.00
Default : Yes
Forced : No
Color range : Limited
Matrix coefficients : BT.709
Audio
ID : 2
Format : AC-3
Format/Info : Audio Coding 3
Mode extension : CM (complete main)
Format settings, Endianness : Big
Codec ID : A_AC3
Duration : 1h 23mn
Bit rate mode : Constant
Bit rate : 448 Kbps
Channel(s) : 6 channels
Channel positions : Front: L C R, Side: L R, LFE
Sampling rate : 48.0 KHz
Bit depth : 32 bits
Compression mode : Lossy
Stream size : 269 MiB (7%)
Title : Профессиональный(многоголосый закадровый R5)
Language : Russian
Default : Yes
Forced : No
Menu
00:00:00.000 : :00:00:00.000
00:00:15.682 : :00:00:15.682
00:02:05.792 : :00:02:05.792
00:03:45.142 : :00:03:45.142
00:09:48.755 : :00:09:48.755
00:15:20.253 : :00:15:20.253
00:23:44.256 : :00:23:44.256
00:26:17.785 : :00:26:17.785
00:33:18.538 : :00:33:18.538
00:36:05.330 : :00:36:05.330
00:40:59.624 : :00:40:59.624
00:45:09.165 : :00:45:09.165
00:48:46.507 : :00:48:46.507
00:54:01.572 : :00:54:01.572
00:56:32.764 : :00:56:32.764
01:05:27.382 : :01:05:27.382
01:07:32.257 : :01:07:32.257
01:11:21.359 : :01:11:21.360
01:14:58.285 : :01:14:58.285
01:17:08.374 : :01:17:08.374
01:19:35.938 : :01:19:35.938
-- --
[Профиль] [ЛС]
Кто просматривает тему:

Форум Тема Автор Размер
Author's Song (Авторская песня) Владимир Высоцкий - Я Первый Раз В Италии 1979 (Solyd Records 1999) [APE, image +.cue, lossless] sergej644 262 MB
Фильмы (HD DVD, Blu-ray и BDRemux) 8 первых свиданий (2012) Blu-Ray Remux 1080p sergej644 14.21 GB
Фильмы (HD Rips | 720p, 1080p) 8 первых свиданий (Дэвид Додсон, Александр Маляревский) [2012, Россия, комедия, Blu-ray Disc 1080p] TorrentFilm 18.26 GB
Фильмы (DVD 5/9) 8 первых свиданий (Дэвид Додсон, Александр Маляревский) [2012, Россия, Мелодрама, комедия, BD>DVD5 (Custom)] TorrentFilm 4.32 GB
Фильмы (DVD 5/9) 8 первых свиданий (Дэвид Додсон, Александр Маляревский) [2012, Россия, Мелодрама, комедия, BD>DVD9 (Custom)] TorrentFilm 6 GB
BBC BBC: Первый в мире компьютер. Разгадка Антикитерского механизма / The World's First Computer: Decoding Antikythera Mechanism (Майкл Бекхэм / Michael Beckham) [2012 г., Докум... skorpionN 1.46 GB
Бокс, Бои без правил, К1 Floyd Mayweather Jr. vs Manny Pacquiao / Флойд Мэйвезер - Мэнни Пакьяо / Первый HD [02.05.2015, Бокс, 50fps, HDTVRip 720p, RU] Russian Mafia 3.34 GB
Бокс, Бои без правил, К1 Floyd Mayweather Jr. vs Manny Pacquiao / Флойд Мэйвезер - Мэнни Пакьяо / Первый HD [02.05.2015, Бокс, H.264, HDTV/1080i, RU] Russian Mafia 10.35 GB
Показать сообщения:    

Текущее время: Сегодня 16:22

Часовой пояс: GMT



Вы не можете начинать темы
Вы не можете отвечать на сообщения
Вы не можете редактировать свои сообщения
Вы не можете удалять свои сообщения
Вы не можете голосовать в опросах
Вы не можете прикреплять файлы к сообщениям
Вы не можете скачивать файлы