Первый раз / First Time (2012) HDTVRip 720p

 
Автор Сообщение

sergej644 ®

Пол:

Стаж: 4 года 11 месяцев

Сообщений: 6040

Откуда: Soviet Union



Награды: Нет

Торрент-статистика

Создавать темы 08-Фев-2015 20:59

[Цитировать]

[/url]
Информация о фильме
Название: Первый раз
Оригинальное название: First Time
Год выхода: 2012
Жанр: Драма, Мелодрама
Режиссер: Хань Ян
В ролях: Тянь Юань, Сюань Хуан, Марк Чао, Анджела Бейби
О фильме:
Она обычная маменькина дочка - красивая, скромная и со своими секретами, он - обычный раздолбай - талантливый, вспыльчивый и, конечно, безумно романтичный. У неё своё прошлое, которое она помнит с трудом, а него свой расчёт, чтобы оказаться в этом прошлом. Что, если спасая другого спасёшься сам? Но цена за это будет слишком велика... Итак, однажды Сон Шичао встретила своего бывшего одноклассника Гон Нин. Она его даже не узнает, но он хорошо помнит её. Возможно, даже, слишком хорошо...
Страна: Китай
Продолжительность: 01:42:00
Перевод: Любительский одноголосый закадровый mi24
По субтитрам: Олеся Варнавиду
Файл
Кодек: h 264
Качество: HDTVrip 720p
Видео: MPEG-4 AVC, 4556 Кбит/с, 1280x536, 24,000 кадр/с
Звук:
Аудио 1: Русский AC3, 2 ch, 448 Кбит/с
Аудио 2: Русский AC3, 2 ch, 448 Кбит/с
Аудио 3: Русский AC3, 6 ch, 448 Кбит/с
Семпл

Инфо-файл

Формат : Matroska
Версия формата : Version 4 / Version 2
Размер файла : 4,24 Гбайт
Продолжительность : 1 ч. 42 м.
Общий поток : 5890 Кбит/сек
Дата кодирования : UTC 2010-02-22 21:41:31
Программа кодирования : mkvmerge v5.9.0 ('On The Loose') built on Dec 9 2012 15:37:01
Библиотека кодирования : libebml v1.3.0 + libmatroska v1.4.0
Видео
Идентификатор : 1
Формат : AVC
Формат/Информация : Advanced Video Codec
Профиль формата : High@L4.1
Параметр CABAC формата : Да
Параметр ReFrames формата : 10 кадров
Режим смешивания : Header stripping
Идентификатор кодека : V_MPEG4/ISO/AVC
Продолжительность : 1 ч. 42 м.
Битрейт : 4556 Кбит/сек
Ширина : 1280 пикселей
Высота : 536 пикселей
Соотношение сторон : 2,40:1
Режим частоты кадров : Постоянный
Частота кадров : 24,000 кадра/сек
Цветовое пространство : YUV
Субдискретизация насыщенности : 4:2:0
Битовая глубина : 8 бит
Тип развёртки : Прогрессивная
Бит/(Пиксели*Кадры) : 0.277
Размер потока : 3,19 Гбайт (75%)
Заголовок : First.Time.2012
Библиотека кодирования : x264 core 120 r2146 bcd41db
Настройки программы : cabac=1 / ref=10 / deblock=1:-3:-3 / analyse=0x3:0x113 / me=umh / subme=10 / psy=1 / psy_rd=1.00:0.05 / mixed_ref=1 / me_range=32 / chroma_me=1 / trellis=2 / 8x8dct=1 / cqm=0 / deadzone=21,11 / fast_pskip=0 / chroma_qp_offset=-2 / threads=8 / sliced_threads=0 / nr=0 / decimate=1 / interlaced=0 / bluray_compat=0 / constrained_intra=0 / bframes=5 / b_pyramid=2 / b_adapt=2 / b_bias=0 / direct=3 / weightb=1 / open_gop=0 / weightp=2 / keyint=250 / keyint_min=24 / scenecut=40 / intra_refresh=0 / rc=2pass / mbtree=0 / bitrate=4556 / ratetol=1.0 / qcomp=0.70 / qpmin=0 / qpmax=69 / qpstep=4 / cplxblur=20.0 / qblur=0.5 / ip_ratio=1.40 / pb_ratio=1.30 / aq=2:1.00
Язык : Chinese
Default : Нет
Forced : Нет
Аудио #1
Идентификатор : 2
Формат : AC-3
Формат/Информация : Audio Coding 3
Расширение режима : CM (complete main)
Параметр Endianness формата : Big
Режим смешивания : Header stripping
Идентификатор кодека : A_AC3
Продолжительность : 1 ч. 42 м.
Вид битрейта : Постоянный
Битрейт : 448 Кбит/сек
Каналы : 2 канала
Расположение каналов : Front: L R
Частота : 48,0 КГц
Битовая глубина : 16 бит
Метод сжатия : С потерями
Размер потока : 330 Мбайт (8%)
Default : Да
Forced : Нет
Аудио #2
Идентификатор : 3
Формат : AC-3
Формат/Информация : Audio Coding 3
Расширение режима : CM (complete main)
Параметр Endianness формата : Big
Режим смешивания : Header stripping
Идентификатор кодека : A_AC3
Продолжительность : 1 ч. 42 м.
Вид битрейта : Постоянный
Битрейт : 448 Кбит/сек
Каналы : 6 каналов
Расположение каналов : Front: L C R, Side: L R, LFE
Частота : 48,0 КГц
Битовая глубина : 16 бит
Метод сжатия : С потерями
Размер потока : 330 Мбайт (8%)
Default : Нет
Forced : Нет
Аудио #3
Идентификатор : 4
Формат : AC-3
Формат/Информация : Audio Coding 3
Расширение режима : CM (complete main)
Параметр Endianness формата : Big
Режим смешивания : Header stripping
Идентификатор кодека : A_AC3
Продолжительность : 1 ч. 42 м.
Вид битрейта : Постоянный
Битрейт : 448 Кбит/сек
Каналы : 2 канала
Расположение каналов : Front: L R
Частота : 48,0 КГц
Битовая глубина : 16 бит
Метод сжатия : С потерями
Размер потока : 330 Мбайт (8%)
Default : Нет
Forced : Нет

Скриншоты

Релиз от: mi24
[Профиль] [ЛС]
Кто просматривает тему:

Форум Тема Автор Размер
Author's Song (Авторская песня) Владимир Высоцкий - Я Первый Раз В Италии 1979 (Solyd Records 1999) [APE, image +.cue, lossless] sergej644 262 MB
Фильмы (HD DVD, Blu-ray и BDRemux) 8 первых свиданий (2012) Blu-Ray Remux 1080p sergej644 14.21 GB
Фильмы (HD Rips | 720p, 1080p) 8 первых свиданий (Дэвид Додсон, Александр Маляревский) [2012, Россия, комедия, Blu-ray Disc 1080p] TorrentFilm 18.26 GB
Фильмы (DVD 5/9) 8 первых свиданий (Дэвид Додсон, Александр Маляревский) [2012, Россия, Мелодрама, комедия, BD>DVD5 (Custom)] TorrentFilm 4.32 GB
Фильмы (DVD 5/9) 8 первых свиданий (Дэвид Додсон, Александр Маляревский) [2012, Россия, Мелодрама, комедия, BD>DVD9 (Custom)] TorrentFilm 6 GB
BBC BBC: Первый в мире компьютер. Разгадка Антикитерского механизма / The World's First Computer: Decoding Antikythera Mechanism (Майкл Бекхэм / Michael Beckham) [2012 г., Докум... skorpionN 1.46 GB
Бокс, Бои без правил, К1 Floyd Mayweather Jr. vs Manny Pacquiao / Флойд Мэйвезер - Мэнни Пакьяо / Первый HD [02.05.2015, Бокс, 50fps, HDTVRip 720p, RU] Russian Mafia 3.34 GB
Бокс, Бои без правил, К1 Floyd Mayweather Jr. vs Manny Pacquiao / Флойд Мэйвезер - Мэнни Пакьяо / Первый HD [02.05.2015, Бокс, H.264, HDTV/1080i, RU] Russian Mafia 10.35 GB
Показать сообщения:    

Текущее время: Сегодня 04:43

Часовой пояс: GMT



Вы не можете начинать темы
Вы не можете отвечать на сообщения
Вы не можете редактировать свои сообщения
Вы не можете удалять свои сообщения
Вы не можете голосовать в опросах
Вы не можете прикреплять файлы к сообщениям
Вы не можете скачивать файлы