Первый мститель: Противостояние / Captain America: Civil War (2016) BDRip 1080p | 60FPS

 
Автор Сообщение

Russian Mafia ®

Пол:

Стаж: 1 год 8 месяцев

Сообщений: 4260



Награды: 10 (Подробнее)

Top Releaser 3 (Количество: 1) Top Releaser 2 (Количество: 1) Mega Seeder 3 (Количество: 1)
Торрент-статистика

Создавать темы 04-Сен-2016 14:53

[Цитировать]

Информация о фильме
Название: Первый мститель: Противостояние
Оригинальное название: Captain America Civil War
Год выхода: 2016
Жанр: Укажите жанры, разделяя запятыми
Режиссер: Энтони Руссо, Джо Руссо
В ролях: Крис Эванс, Роберт Дауни мл., Скарлетт Йоханссон, Себастьян Стэн, Энтони Маки, Дон Чидл, Джереми Реннер, Чэдвик Боузмэн, Пол Беттани, Элизабет Олсен
О фильме:
Мстители под руководством Капитана Америки оказываются участниками разрушительного инцидента, имеющего международный масштаб. Эти события заставляют правительство задуматься над тем, чтобы начать регулировать действия всех людей с особыми способностями, введя «Акт о регистрации супергероев», вынуждая их подчиняться ООН.
Видя в этом договоре нарушение гражданских прав и плевок на всё, во что он верит, Стив Роджерс открыто восстаёт против нового режима, ведя за собой группу героев, поддерживающих его мнение. В свою очередь, Тони Старк видит смысл в новом договоре и становится во главе героев, поддерживающих его. Всё это приводит к неизбежному расколу Мстителей и войне между сторонами. Сражаясь друг с другом, Старк и Роджерс не знают о том, что таинственный Барон Земо уже строит свои собственные планы, воспользовавшись расколом величайших героев Земли.

Страна: США, Германия
Студия: Marvel Entertainment, Marvel Studios Inc., Studio Babelsberg
Продолжительность: 02:27:42
Перевод: #1: Дублированный | iTunes
#2: Профессиональный многоголосый (закадровый) | FocusStudio
Файл
Кодек: х264/V_MPEG4/ISO/AVC
Качество: BDRip 1080 60fps
Видео: 1920x800 , 14000 , 59.940 fps
Звук:
Аудио #01: 48 kHz, AC3, 5.1, 384 Kbps | Дублированный, iTunes |
Аудио #02: 48 kHz, AC3, 5.1, 640 Kbps | Профессиональный многоголосый (закадровый) | FocusStudio |
Аудио #03: 48 kHz, DTS-HD MA, 7.1, 4724 Kbps | Профессиональный многоголосый (закадровый) | FocusStudio |
Аудио #04: 48 kHz, DTS-HD MA, 7.1, 4699 kbps | Оригинал |
Субтитры: Русские (полные, форсированные), английские (full, SDH)

MI

General
Unique ID : 190291409423569604084618681601962799061 (0x8F28CAD7E60749BC850BF7BC395FEFD5)
Complete name : F:Торент60fpsCaptain.America.Civil.War.2016.D.BDRip.1080p.GTP.60FPS.mkv
Format : Matroska
Format version : Version 4 / Version 2
File size : 25.1 GiB
Duration : 2h 27mn
Overall bit rate : 24.3 Mbps
Movie name : Первый мститель: Противостояние GTP 60fps
Encoded date : UTC 2016-09-04 09:45:43
Writing application : mkvmerge v9.4.0 ('Knurl') 64bit
Writing library : libebml v1.3.4 + libmatroska v1.4.5
Video
ID : 1
Format : AVC
Format/Info : Advanced Video Codec
Format profile : High@L4.2
Format settings, CABAC : Yes
Format settings, ReFrames : 4 frames
Codec ID : V_MPEG4/ISO/AVC
Duration : 2h 27mn
Bit rate : 14.0 Mbps
Width : 1 920 pixels
Height : 800 pixels
Display aspect ratio : 2.40:1
Frame rate mode : Constant
Frame rate : 59.940 fps
Color space : YUV
Chroma subsampling : 4:2:0
Bit depth : 8 bits
Scan type : Progressive
Bits/(Pixel*Frame) : 0.152
Stream size : 14.3 GiB (57%)
Title : GTP
Writing library : x264 core 146 r2538 121396c
Encoding settings : cabac=1 / ref=4 / deblock=1:0:0 / analyse=0x3:0x113 / me=umh / subme=9 / psy=1 / psy_rd=1.00:0.10 / mixed_ref=1 / me_range=32 / chroma_me=1 / trellis=2 / 8x8dct=1 / cqm=0 / deadzone=21,11 / fast_pskip=1 / chroma_qp_offset=-3 / threads=12 / lookahead_threads=3 / sliced_threads=0 / nr=0 / decimate=1 / interlaced=0 / bluray_compat=0 / constrained_intra=0 / bframes=16 / b_pyramid=2 / b_adapt=2 / b_bias=0 / direct=3 / weightb=1 / open_gop=0 / weightp=2 / keyint=600 / keyint_min=59 / scenecut=40 / intra_refresh=0 / rc_lookahead=40 / rc=2pass / mbtree=1 / bitrate=14000 / ratetol=1.0 / qcomp=0.60 / qpmin=0 / qpmax=69 / qpstep=4 / cplxblur=20.0 / qblur=0.5 / vbv_maxrate=14000 / vbv_bufsize=14000 / nal_hrd=none / filler=0 / ip_ratio=1.40 / aq=1:1.00
Language : English
Default : Yes
Forced : No
Audio #1
ID : 2
Format : AC-3
Format/Info : Audio Coding 3
Mode extension : CM (complete main)
Format settings, Endianness : Big
Codec ID : A_AC3
Duration : 2h 27mn
Bit rate mode : Constant
Bit rate : 384 Kbps
Channel(s) : 6 channels
Channel positions : Front: L C R, Side: L R, LFE
Sampling rate : 48.0 KHz
Frame rate : 31.250 fps (1536 spf)
Compression mode : Lossy
Delay relative to video : 800ms
Stream size : 406 MiB (2%)
Title : DUB [iTunes]
Language : Russian
Default : Yes
Forced : No
Audio #2
ID : 3
Format : AC-3
Format/Info : Audio Coding 3
Mode extension : CM (complete main)
Format settings, Endianness : Big
Codec ID : A_AC3
Duration : 2h 27mn
Bit rate mode : Constant
Bit rate : 640 Kbps
Channel(s) : 6 channels
Channel positions : Front: L C R, Side: L R, LFE
Sampling rate : 48.0 KHz
Frame rate : 31.250 fps (1536 spf)
Compression mode : Lossy
Stream size : 676 MiB (3%)
Title : MVO-AC3 [FocusStudio]
Language : Russian
Default : No
Forced : No
Audio #3
ID : 4
Format : DTS
Format/Info : Digital Theater Systems
Format profile : MA / Core
Mode : 16
Format settings, Endianness : Big
Codec ID : A_DTS
Duration : 2h 27mn
Bit rate mode : Variable / Constant
Bit rate : 4 724 Kbps / 1 509 Kbps
Channel(s) : 8 channels / 6 channels
Channel positions : Front: L C R, Side: L R, Back: L R, LFE / Front: L C R, Side: L R, LFE
Sampling rate : 48.0 KHz
Frame rate : 93.750 fps (512 spf)
Bit depth : 24 bits
Compression mode : Lossless / Lossy
Stream size : 4.87 GiB (19%)
Title : MVO-DTS-HD MA [FocusStudio]
Language : Russian
Default : No
Forced : No
Audio #4
ID : 5
Format : DTS
Format/Info : Digital Theater Systems
Format profile : MA / Core
Mode : 16
Format settings, Endianness : Big
Codec ID : A_DTS
Duration : 2h 27mn
Bit rate mode : Variable / Constant
Bit rate : 4 699 Kbps / 1 509 Kbps
Channel(s) : 8 channels / 6 channels
Channel positions : Front: L C R, Side: L R, Back: L R, LFE / Front: L C R, Side: L R, LFE
Sampling rate : 48.0 KHz
Frame rate : 93.750 fps (512 spf)
Bit depth : 24 bits
Compression mode : Lossless / Lossy
Stream size : 4.85 GiB (19%)
Title : Original
Language : English
Default : No
Forced : No
Text #1
ID : 6
Format : UTF-8
Codec ID : S_TEXT/UTF8
Codec ID/Info : UTF-8 Plain Text
Duration : 1h 44mn
Bit rate : 2 bps
Count of elements : 59
Stream size : 1.91 KiB (0%)
Title : Forced
Language : Russian
Default : Yes
Forced : No
Text #2
ID : 7
Format : UTF-8
Codec ID : S_TEXT/UTF8
Codec ID/Info : UTF-8 Plain Text
Duration : 2h 25mn
Bit rate : 74 bps
Count of elements : 1722
Stream size : 80.1 KiB (0%)
Title : Full
Language : Russian
Default : No
Forced : No
Text #3
ID : 8
Format : UTF-8
Codec ID : S_TEXT/UTF8
Codec ID/Info : UTF-8 Plain Text
Duration : 2h 25mn
Bit rate : 50 bps
Count of elements : 1865
Stream size : 54.2 KiB (0%)
Title : Full
Language : English
Default : No
Forced : No
Text #4
ID : 9
Format : UTF-8
Codec ID : S_TEXT/UTF8
Codec ID/Info : UTF-8 Plain Text
Duration : 2h 26mn
Bit rate : 55 bps
Count of elements : 2105
Stream size : 59.1 KiB (0%)
Title : SDH
Language : English
Default : No
Forced : No
Menu
00:00:00.000 : en:Chapter 1
00:09:01.958 : en:Chapter 2
00:13:04.993 : en:Chapter 3
00:21:03.345 : en:Chapter 4
00:27:53.380 : en:Chapter 5
00:31:57.290 : en:Chapter 6
00:35:08.398 : en:Chapter 7
00:42:58.451 : en:Chapter 8
00:52:04.621 : en:Chapter 9
01:05:39.102 : en:Chapter 10
01:16:41.639 : en:Chapter 11
01:22:28.777 : en:Chapter 12
01:29:29.489 : en:Chapter 13
01:34:09.769 : en:Chapter 14
01:45:38.582 : en:Chapter 15
01:55:54.322 : en:Chapter 16
02:02:35.056 : en:Chapter 17
02:12:14.176 : en:Chapter 18
02:18:29.384 : en:Chapter 19

Скриншоты

[Профиль] [ЛС]
Кто просматривает тему:

Форум Тема Автор Размер
Author's Song (Авторская песня) Владимир Высоцкий - Я Первый Раз В Италии 1979 (Solyd Records 1999) [APE, image +.cue, lossless] sergej644 262 MB
Фильмы (HD DVD, Blu-ray и BDRemux) 8 первых свиданий (2012) Blu-Ray Remux 1080p sergej644 14.21 GB
Фильмы (HD Rips | 720p, 1080p) 8 первых свиданий (Дэвид Додсон, Александр Маляревский) [2012, Россия, комедия, Blu-ray Disc 1080p] TorrentFilm 18.26 GB
Фильмы (DVD 5/9) 8 первых свиданий (Дэвид Додсон, Александр Маляревский) [2012, Россия, Мелодрама, комедия, BD>DVD5 (Custom)] TorrentFilm 4.32 GB
Фильмы (DVD 5/9) 8 первых свиданий (Дэвид Додсон, Александр Маляревский) [2012, Россия, Мелодрама, комедия, BD>DVD9 (Custom)] TorrentFilm 6 GB
BBC BBC: Первый в мире компьютер. Разгадка Антикитерского механизма / The World's First Computer: Decoding Antikythera Mechanism (Майкл Бекхэм / Michael Beckham) [2012 г., Докум... skorpionN 1.46 GB
Бокс, Бои без правил, К1 Floyd Mayweather Jr. vs Manny Pacquiao / Флойд Мэйвезер - Мэнни Пакьяо / Первый HD [02.05.2015, Бокс, 50fps, HDTVRip 720p, RU] Russian Mafia 3.34 GB
Бокс, Бои без правил, К1 Floyd Mayweather Jr. vs Manny Pacquiao / Флойд Мэйвезер - Мэнни Пакьяо / Первый HD [02.05.2015, Бокс, H.264, HDTV/1080i, RU] Russian Mafia 10.35 GB
Показать сообщения:    

Текущее время: Сегодня 14:09

Часовой пояс: GMT



Вы не можете начинать темы
Вы не можете отвечать на сообщения
Вы не можете редактировать свои сообщения
Вы не можете удалять свои сообщения
Вы не можете голосовать в опросах
Вы не можете прикреплять файлы к сообщениям
Вы не можете скачивать файлы