Первый мститель: Другая война / Captain America: The Winter Soldier (Энтони Руссо / Anthony Russo, Джо Руссо / Joe Russo) [2014, США, Фантастика, боевик, приключения, BDRip] Dub

 
Автор Сообщение

reversefile ®

Пол:

Стаж: 4 года 5 месяцев

Сообщений: 842

Откуда: ReverseFile.org



Награды: Нет

Торрент-статистика

Создавать темы 11-Авг-2014 10:41

[Цитировать]

Первый мститель: Другая война / Captain America: The Winter Soldier- Год выпуска: 2014
Выпущено: США / Marvel Entertainment
Жанр: фантастика, боевик, приключения
Продолжительность: 02:15:54
Перевод: Профессиональный (полное дублирование) BD EUR
Cубтитры: нет-Режиссер:
Энтони Руссо / Anthony Russo, Джо Руссо / Joe Russo-В ролях:
Крис Эванс (Steve Rogers / Captain America), Скарлетт Йоханссон (Natasha Romanoff / Black Widow), Энтони Маки (Sam Wilson / Falcon), Себастьян Стэн (Bucky Barnes / Winter Soldier), Сэмюэл Л. Джексон (Nick Fury), Роберт Редфорд (Alexander Pierce), Фрэнк Грилло (Brock Rumlow), Коби Смолдерс (Maria Hill), Эмили ВанКэмп (Agent 13), Максимилиано Эрнандес (Jasper Sitwell)-Описание:
После беспрецедентных событий, впервые собравших вместе команду Мстителей, Стив Роджерс, известный также как Капитан Америка, оседает в Вашингтоне и пытается приспособиться к жизни в современном мире. Но покой этому герою только снится — пытаясь помочь коллеге из агентства Щ. И. Т, Стив оказывается в центре событий, грозящих катастрофой мирового масштаба. Для того, чтобы разоблачить злодейский заговор, Капитан Америка объединяется с Черной вдовой. К ним также присоединяется новый соратник, известный как Сокол, однако никто из них даже не подозревает, на что способен новый враг.-IMDB | КиноПоиск | Сэмпл |-Качество: BDRip [Blu-Ray Disc EUR | 1080p | HDCLUB]
Формат: AVI
Видео: 720x304 (2.37:1), 23.976 fps, XviD build 73 ~1905 kbps avg, 0.36 bit/pixel
Аудио: 48 kHz, AC3 Dolby Digital, 3/2 (L,C,R,l,r) + LFE ch, ~384.00 kbps avg
-

Скриншоты

MediaInfo

General
Complete name                            : D:\Pervyi_mstitel’_Drugaya_voina_2014_BDRip_[2.18]_by_Dalemake.avi
Format                                   : AVI
Format/Info                              : Audio Video Interleave
Format profile                           : OpenDML
File size                                : 2.18 GiB
Duration                                 : 2h 15mn
Overall bit rate                         : 2 296 Kbps
Writing application                      : VirtualDubMod 1.5.10.3 | www.virtualdub-fr.org || (build 2550/release)
Writing library                          : VirtualDubMod build 2550/release
Video
ID                                       : 0
Format                                   : MPEG-4 Visual
Format profile                           : Advanced Simple@L5
Format settings, BVOP                    : 1
Format settings, QPel                    : No
Format settings, GMC                     : No warppoints
Format settings, Matrix                  : Custom
Codec ID                                 : XVID
Codec ID/Hint                            : XviD
Duration                                 : 2h 15mn
Bit rate                                 : 1 900 Kbps
Width                                    : 720 pixels
Height                                   : 304 pixels
Display aspect ratio                     : 2.35:1
Frame rate                               : 23.976 fps
Color space                              : YUV
Chroma subsampling                       : 4:2:0
Bit depth                                : 8 bits
Scan type                                : Progressive
Compression mode                         : Lossy
Bits/(Pixel*Frame)                       : 0.362
Stream size                              : 1.80 GiB (83%)
Writing library                          : XviD 73
Audio
ID                                       : 1
Format                                   : AC-3
Format/Info                              : Audio Coding 3
Mode extension                           : CM (complete main)
Format settings, Endianness              : Big
Codec ID                                 : 2000
Duration                                 : 2h 15mn
Bit rate mode                            : Constant
Bit rate                                 : 384 Kbps
Channel(s)                               : 6 channels
Channel positions                        : Front: L C R, Side: L R, LFE
Sampling rate                            : 48.0 KHz
Bit depth                                : 16 bits
Compression mode                         : Lossy
Stream size                              : 373 MiB (17%)
Alignment                                : Split accross interleaves
Interleave, duration                     : 42 ms (1.00 video frame)
Interleave, preload duration             : 500 ms
-
[Профиль] [ЛС]
Кто просматривает тему:

Форум Тема Автор Размер
Author's Song (Авторская песня) Владимир Высоцкий - Я Первый Раз В Италии 1979 (Solyd Records 1999) [APE, image +.cue, lossless] sergej644 262 MB
Фильмы (HD DVD, Blu-ray и BDRemux) 8 первых свиданий (2012) Blu-Ray Remux 1080p sergej644 14.21 GB
Фильмы (HD Rips | 720p, 1080p) 8 первых свиданий (Дэвид Додсон, Александр Маляревский) [2012, Россия, комедия, Blu-ray Disc 1080p] TorrentFilm 18.26 GB
Фильмы (DVD 5/9) 8 первых свиданий (Дэвид Додсон, Александр Маляревский) [2012, Россия, Мелодрама, комедия, BD>DVD5 (Custom)] TorrentFilm 4.32 GB
Фильмы (DVD 5/9) 8 первых свиданий (Дэвид Додсон, Александр Маляревский) [2012, Россия, Мелодрама, комедия, BD>DVD9 (Custom)] TorrentFilm 6 GB
BBC BBC: Первый в мире компьютер. Разгадка Антикитерского механизма / The World's First Computer: Decoding Antikythera Mechanism (Майкл Бекхэм / Michael Beckham) [2012 г., Докум... skorpionN 1.46 GB
Бокс, Бои без правил, К1 Floyd Mayweather Jr. vs Manny Pacquiao / Флойд Мэйвезер - Мэнни Пакьяо / Первый HD [02.05.2015, Бокс, 50fps, HDTVRip 720p, RU] Russian Mafia 3.34 GB
Бокс, Бои без правил, К1 Floyd Mayweather Jr. vs Manny Pacquiao / Флойд Мэйвезер - Мэнни Пакьяо / Первый HD [02.05.2015, Бокс, H.264, HDTV/1080i, RU] Russian Mafia 10.35 GB
Показать сообщения:    

Текущее время: Сегодня 16:27

Часовой пояс: GMT



Вы не можете начинать темы
Вы не можете отвечать на сообщения
Вы не можете редактировать свои сообщения
Вы не можете удалять свои сообщения
Вы не можете голосовать в опросах
Вы не можете прикреплять файлы к сообщениям
Вы не можете скачивать файлы