Первые (2017) WEB-DLRip | Line

 
Author Message

BOSS ®

Gender:

Longevity: 5 years 3 months

Posts: 14230

Location: ODESSA



: 22 ()

Top Keeper 2 (1) Mega Seeder 3 (1) Mega Releaser 2 (1)
Торрент-статистика

Post 08-Jul-2018 14:41

[Quote]

Информация о фильме
Название: Первые
Год выпуска: 2017
Страна: Россия
Жанр: драма, приключения, история-Перевод: Не требуется [Русский] (Line)
Примечание: Релиз без рекламы
Продолжительность: 01:36:15-Режиссер: Дмитрий Суворов
В ролях: Наиль Абдрахманов (Василий Прончищев), Алина Ланина (Татьяна Прончищева), Евгений Ткачук (Семён Челюскин), Валерий Баринов (Витус Беринг), Данила Якушев (боцман), Сергей Рост (Фарварсон), Сергей Терещенко, Александр Дьяченко (Пётр I), Егор Тимцуник-Описание:
Лента расскажет о подвиге и любви супругов Прончищевых - полярных исследователей Арктики в составе Ленско-Енисейского отряда Великой Северной экспедиции.-Рейтинг:
-Качество: WEB-DLRip
Формат: AVI
Видео: XviD, 720x320 (2.25:1), 1803 kbps, 24 fps, 0,326 bpp
Аудио: AC3 / 2.0 / 48 kHz / 224 kbps /
Сэмпл--

ОтчетМедиаИнфо

General
Complete name : F:Pervye.2017.WEB-DLRip.Line.R.G.Resident.avi
Format : AVI
Format/Info : Audio Video Interleave
File size : 1.37 GiB
Duration : 1 h 36 min
Overall bit rate : 2 037 kb/s
Writing application : VirtualDubModRus 1.5.10.2 (build 2542/release)
Writing library : VirtualDubMod build 2542/release
Video
ID : 0
Format : MPEG-4 Visual
Format profile : Advanced Simple@L5
Format settings, BVOP : 1
Format settings, QPel : No
Format settings, GMC : No warppoints
Format settings, Matrix : Custom
Codec ID : XVID
Codec ID/Hint : XviD
Duration : 1 h 36 min
Bit rate : 1 804 kb/s
Width : 720 pixels
Height : 320 pixels
Display aspect ratio : 2.25:1
Frame rate : 24.000 FPS
Color space : YUV
Chroma subsampling : 4:2:0
Bit depth : 8 bits
Scan type : Progressive
Compression mode : Lossy
Bits/(Pixel*Frame) : 0.326
Stream size : 1.21 GiB (89%)
Writing library : XviD 73
Audio
ID : 1
Format : AC-3
Format/Info : Audio Coding 3
Mode extension : CM (complete main)
Format settings, Endianness : Big
Codec ID : 2000
Duration : 1 h 36 min
Bit rate mode : Constant
Bit rate : 224 kb/s
Channel(s) : 2 channels
Channel positions : Front: L R
Sampling rate : 48.0 kHz
Frame rate : 31.250 FPS (1536 spf)
Compression mode : Lossy
Stream size : 154 MiB (11%)
Alignment : Split accross interleaves
Interleave, duration : 42 ms (1.00 video frame)
Interleave, preload duration : 500 ms

Скриншоты

[Profile] [PM]
Кто просматривает тему:

Forum Topic Author Size
Author's Song (Авторская песня) Владимир Высоцкий - Я Первый Раз В Италии 1979 (Solyd Records 1999) [APE, image +.cue, lossless] sergej644 262 MB
Фильмы 2014 года 71 / Семьдесят первый / '71 (Ян Деманж) [2014 г., Боевик, триллер, драма, HDRip] AVO (Матвеев) + SUB BOSS 1.36 GB
Фильмы (HD DVD, Blu-ray и BDRemux) 8 первых свиданий (2012) Blu-Ray Remux 1080p sergej644 14.21 GB
Фильмы (HD Rips | 720p, 1080p) 8 первых свиданий (Дэвид Додсон, Александр Маляревский) [2012, Россия, комедия, Blu-ray Disc 1080p] TorrentFilm 18.26 GB
Фильмы (DVD 5/9) 8 первых свиданий (Дэвид Додсон, Александр Маляревский) [2012, Россия, Мелодрама, комедия, BD>DVD5 (Custom)] TorrentFilm 4.32 GB
Фильмы (DVD 5/9) 8 первых свиданий (Дэвид Додсон, Александр Маляревский) [2012, Россия, Мелодрама, комедия, BD>DVD9 (Custom)] TorrentFilm 6 GB
BBC BBC: Первый в мире компьютер. Разгадка Антикитерского механизма / The World's First Computer: Decoding Antikythera Mechanism (Майкл Бекхэм / Michael Beckham) [2012 г., Докум... skorpionN 1.46 GB
Бокс, Бои без правил, К1 Floyd Mayweather Jr. vs Manny Pacquiao / Флойд Мэйвезер - Мэнни Пакьяо / Первый HD [02.05.2015, Бокс, 50fps, HDTVRip 720p, RU] Russian Mafia 3.34 GB
Display posts from previous:    

The time now is: Today 05:54

All times are GMT



You cannot post new topics in this forum
You cannot reply to topics in this forum
You cannot edit your posts in this forum
You cannot delete your posts in this forum
You cannot vote in polls in this forum
You cannot attach files in this forum
You cannot download files in this forum