Первое свидание Райли / Riley's First Date? (2015) BDRip | D

 
Автор Сообщение

ODESSA ®

Пол:

Стаж: 2 года 2 месяца

Сообщений: 419

Откуда: ODESSA



Награды: Нет

Торрент-статистика

Создавать темы 28-Сен-2016 09:45

[Цитировать]

Первое свидание Райли / Riley's First Date?
Страна: США
Производство: Pixar Animation Studios
Год выпуска: 2015
Жанр: мультфильм, короткометражка, мелодрама, комедия, семейный
Продолжительность: 00:04:40
Режиссер: Джош Кули
Автор сценария: Джош Кули
В ролях: Пит Доктер, Бен Кокс, Кайл МакЛоклен, Дайан Лэйн, Карлос Аласраки, Кейтлин Диас, Джош Кули, Шерри Линн, Билл Хейдер
Описание: В жизни каждого ребёнка наступает момент, когда он вырастает, и его отношения со сверстниками переходят на новый уровень. Вот только для родителей это всегда становится неожиданностью, сколько бы лет ни исполнилось их чаду. Мистер и миссис Андерсон так же оказались не готовы к тому, что у их дочери появится молодой человек...

Перевод: Профессиональный (полное дублирование)
Субтитры: отдельными файлами | русские, английские-Качество: BDRip
Формат: AVI
Видео кодек: XviD
Аудио кодек: АС3
Видео: 704x400 (16:9), 23.976 fps, XviD build 73 ~2 000 kbps avg
Аудио №1: 48.0 kHz, AC3 Dolby Digital, 3/2 (L,C,R,l,r) + LFE ch, ~448 kbps | RUS
Аудио №2: 48.0 kHz, AC3 Dolby Digital, 3/2 (L,C,R,l,r) + LFE ch, ~448 kbps | ENG
Формат субтитров: *SRT
Дата премьеры (мир): 13 октября 2015

Media Info

General
Полное имя : Riley's.First.Date.2015.bdrip.avi
Формат : AVI
Формат/Информация : Audio Video Interleave
Размер файла : 97,4 Мбайт
Продолжительность : 4 м. 40 с.
Общий поток : 2910 Кбит/сек
Программа кодирования : VirtualDubMod 1.5.10.3 | (build 2550/release)
Библиотека кодирования : VirtualDubMod build 2550/release
Видео
Идентификатор : 0
Формат : MPEG-4 Visual
Профиль формата : Advanced Simple@L5
Параметр BVOP формата : 2
Параметр QPel формата : Нет
Параметр GMC формата : Без точки перехода
Параметр матрицы формата : Выборочная
Идентификатор кодека : XVID
Идентификатор кодека/Подсказка : XviD
Продолжительность : 4 м. 40 с.
Битрейт : 2000 Кбит/сек
Ширина : 704 пикселя
Высота : 400 пикселей
Соотношение сторон : 16:9
Частота кадров : 23,976 кадра/сек
Цветовое пространство : YUV
Субдискретизация насыщенности : 4:2:0
Битовая глубина : 8 бит
Тип развёртки : Прогрессивная
Метод сжатия : С потерями
Бит/(Пиксели*Кадры) : 0.296
Размер потока : 66,9 Мбайт (69%)
Библиотека кодирования : XviD 73
Аудио #1
Идентификатор : 1
Формат : AC-3
Формат/Информация : Audio Coding 3
Расширение режима : CM (complete main)
Параметр Endianness формата : Big
Идентификатор кодека : 2000
Продолжительность : 4 м. 40 с.
Вид битрейта : Постоянный
Битрейт : 448 Кбит/сек
Каналы : 6 каналов
Расположение каналов : Front: L C R, Side: L R, LFE
Частота : 48,0 КГц
Битовая глубина : 16 бит
Метод сжатия : С потерями
Размер потока : 15,0 Мбайт (15%)
Выравнивание : Разделение по промежуткам
Продолжительность промежутка : 42 мс. (1,00 видеокадр)
Время предзагрузки промежутка : 500 мс.
Аудио #2
Идентификатор : 2
Формат : AC-3
Формат/Информация : Audio Coding 3
Расширение режима : CM (complete main)
Параметр Endianness формата : Big
Идентификатор кодека : 2000
Продолжительность : 4 м. 40 с.
Вид битрейта : Постоянный
Битрейт : 448 Кбит/сек
Каналы : 6 каналов
Расположение каналов : Front: L C R, Side: L R, LFE
Частота : 48,0 КГц
Битовая глубина : 16 бит
Метод сжатия : С потерями
Размер потока : 15,0 Мбайт (15%)
Выравнивание : Разделение по промежуткам
Продолжительность промежутка : 42 мс. (1,00 видеокадр)
Время предзагрузки промежутка : 500 мс.

Скриншоты

[Профиль] [ЛС]
Показать сообщения:    

Текущее время: Сегодня 03:48

Часовой пояс: GMT



Вы не можете начинать темы
Вы не можете отвечать на сообщения
Вы не можете редактировать свои сообщения
Вы не можете удалять свои сообщения
Вы не можете голосовать в опросах
Вы не можете прикреплять файлы к сообщениям
Вы не можете скачивать файлы