Первая скрипка (Дмитрий Бабиченко) [1958 г., мультфильм, DVB-AVC]

 
Автор Сообщение

TorrentFilm ®

Пол:

Стаж: 2 года

Сообщений: 7741



Награды: Нет

Торрент-статистика

Создавать темы 01-Янв-2016 00:16

[Цитировать]

Первая скрипка
Жанр: мультфильм
Год выпуска: 1958
Продолжительность: 00:20:05
Режиссёр: Дмитрий Бабиченко
Описание: великолепный мультфильм про кузнечика, который очень любил хваcтаться. Талант без труда не приведет к успеху ...
Доп. информация:

Релиз группы:
Качество видео: DVB
Формат видео: MPEG-TS
Видео: MPEG4 Video (H264), 720x576@785x576 (4:3), анаморф, 25 fps, 5000 kbps
Аудио: MPEG Audio, 2 сh, 48 kHz, 192 kbps
Трансляция спутникового канала:

MediaInfo

D:\Первая скрипка. (1958)_DVB by SLuMeP.ts
General #1
ID : 1 (0x1)
Complete name : D:\Первая скрипка. (1958)_DVB by SLuMeP.ts
Format : MPEG-TS
File size : 788 MiB
Duration : 20mn 5s
Overall bit rate : 5 482 Kbps
Video #2271
ID : 2271 (0x8DF)
Menu ID : 1 (0x1)
Format : AVC
Format/Info : Advanced Video Codec
Format profile : Main@L3.0
Format settings, CABAC : Yes
Format settings, ReFrames : 3 frames
Codec ID : 27
Duration : 20mn 5s
Bit rate : 5 017 Kbps
Width : 720 pixels
Height : 576 pixels
Display aspect ratio : 4:3
Frame rate : 25.000 fps
Standard : Component
Color space : YUV
Chroma subsampling : 4:2:0
Bit depth : 8 bits
Scan type : Interlaced
Scan order : Top Field First
Bits/(Pixel*Frame) : 0.484
Stream size : 721 MiB (92%)
Color primaries : BT.470-6 System B, BT.470-6 System G, BT.601-6 625, BT.1358 625, BT.1700 625 PAL, BT.1700 625 SECAM
Transfer characteristics : BT.470-6 System B, BT.470-6 System G
Matrix coefficients : BT.470-6 System B, BT.470-6 System G, BT.601-6 625, BT.1358 625, BT.1700 625 PAL, BT.1700 625 SECAM, IEC 61966-2-4 601
Audio #2272
ID : 2272 (0x8E0)
Menu ID : 1 (0x1)
Format : MPEG Audio
Format version : Version 1
Format profile : Layer 2
Codec ID : 3
Duration : 20mn 4s
Bit rate mode : Constant
Bit rate : 192 Kbps
Channel(s) : 2 channels
Sampling rate : 48.0 KHz
Compression mode : Lossy
Delay relative to video : -40ms
Stream size : 27.6 MiB (4%)
Language : Russian

Скриншоты

[Профиль] [ЛС]
Кто просматривает тему:

Форум Тема Автор Размер
BBC BBC: Ада Лавлейс: первая леди программирования / Calculating Ada: The Countess of Computing (Nat Sharman) [2015 г., Документальный, научно-популярный, математика, HDTVRip 720p] skorpionN 1.79 GB
Discovery Discovery: Плутон: первая встреча / Direct from Pluto-The First Encounter (Shelley Ayres) [2015 г., Документальный, научно-популярный, HDTVRip 720p] skorpionN 1.13 GB
National Geographic National Geographic: Апокалипсис: Первая мировая война / Apocalypse: World War I [01-05 из 05] (2014) HDTVRip sergej644 3.22 GB
ТВ - Шоу КВН-2015. Первая 1/8 финала [01.03] (2015) SATRip sergej644 1.51 GB
Юмористические фильмы и передачи КВН-2015. Премьер-лига. 1/4 финала. Игра первая [08.08] (2015) HDTVRip от GeneralFilm достали все 1.18 GB
Юмористические фильмы и передачи КВН-2016. Высшая лига. Первая игра. [28.02] (2016) HDTV 1080i от MediaClub достали все 6.21 GB
Юмористические фильмы и передачи КВН-2016. Высшая лига. Первая игра. [28.02] (2016) HDTVRip достали все 1.6 GB
ТВ - Шоу КВН-2016. Премьер-лига. 1/2 финала. Игра первая [12.08] (2016) HDTV 1080i достали все 5.33 GB
Показать сообщения:    

Текущее время: Сегодня 06:25

Часовой пояс: GMT



Вы не можете начинать темы
Вы не можете отвечать на сообщения
Вы не можете редактировать свои сообщения
Вы не можете удалять свои сообщения
Вы не можете голосовать в опросах
Вы не можете прикреплять файлы к сообщениям
Вы не можете скачивать файлы