Первая Мировая (Андрей Верещагин, Алексей Федосов) (8 серий из 8) [2014, документальный, история, военный, драма, WEB-DL 1080p]

 
Автор Сообщение

TorrentFilm ®

Пол:

Стаж: 1 год 11 месяцев

Сообщений: 7741



Награды: Нет

Торрент-статистика

Создавать темы 06-Июн-2015 00:04

[Цитировать]

Первая Мировая1914-1918 Год выпуска: 2014
Страна: Россия
Студия: Star Media
Жанр: документальный, история, военный, драма
Продолжительность: 8 x ~00:53:00
Перевод: не требуется
Субтитры: нет
Режиссер: Андрей Верещагин, Алексей Федосов
Описание: В 2014 году исполнилось сто лет со дня начала одной из самых страшных войн в истории человечества. Десять миллионов солдат и более двадцати миллионов мирных жителей стали ее жертвами. Она навсегда изменила мир и цивилизацию. Документальный фильм «Первая мировая» расскажет о том, чем стала эта война для народов Российской империи, о героизме и верности долгу, о стране, которая прошла страшные испытания и, одолев внешнего врага, рухнула, не сумев решить внутренние проблемы...
Список серий:
1 серия:
Лето 1914 года. Растущее напряжение в Европе. Реформа вооруженных сил России после русско-японской войны. Сараевское убийство Франца Фердинанда и его последствия. Австрийский ультиматум и объявление войны Сербии. Первая бомбардировка Белграда. Предъявление Германией ультиматумов России и Франции. Вступление России в войну. Объявление войны Франции и вторжение немцев в Бельгию.
2 серия:
Август 1914 года. Начало эпохи воздушных бомбардировок. Нападение Германии на Францию. Успехи русских войск в Австро-Венгрии. Бои на море. Роль подводного флота. Декларация о неограниченной подводной войне. «Позиционная война», её особенности. Совершенствование обороны. Россия объявляет войну Османской империи. Знаменитое Рождественское перемирие 1914 года.
3 серия:
Декабрь 1914 года. Боевые действия на Кавказе. «Джихад». Продвижение российской армии вглубь османской территории. Кеприкейское сражение. Турки вторгаются в Аджарию. Полное поражение турок и блистательная победа русских войск. Модернизация британского флота. Уинстон Черчилль. Молодой Адольф Гитлер в боях под Ипром, боевое крещение будущего диктатора.
4 серия:
Весна 1915 года. Русская армия в состоянии «снарядного», «винтовочного» и «патронного» голода. В России все силы брошены в оборонную промышленность, наступает экономический кризис. Очередная химическая атака под Болимовым. Разработка первых противогазов. Российский Красный Крест. Подъем оборонной промышленности. Новый виток мобилизации.
5 серия:
Август 1915 года. «Великое отступление» русских войск и оставление территорий, завоеванных в первый год войны. Немецкая бомбардировка города Двинска. Восточный фронт переходит к изнуряющей позиционной войне. Жестокий бой под Чарторийском и блистательная победа «железной дивизии» Деникина. Наступление русских войск в Галиции на реке Стрыпа.
6 серия:
Зима 1916 года. На Западном фронте начинается первая в мировой истории война в воздухе. Германские дирижабли и самолеты совершают налеты на Британию и Францию, разрушаются города, гибнут мирные жители. Ожесточенная война на море. Гибель «Лузитании». Секретное подразделение «Комната 40». Ютландское сражение - крупнейшая морская битва Первой мировой.
7 серия:
Весна 1916 года. Австро-Венгерские войска прорывают итальянский фронт. Поражение Западного фронта под командованием генерала Эверта. Неудачи в боях под Ковелем. Огромные потери Особой армии генерала Безобразова. Ранение Адольфа Гитлера и отправка его в тыл. 1917 год. Неудачи на фронте сменяются успехами, но проблемы в тылу растут. Слабость власти, смена министров, революционная агитация, перебои с продовольствием. Восстание в Петербурге.
8 серия:
1917 год. Восстание в Петербурге. Февральская революция. Отречение Государя от престола. Резко ухудшается экономическое положение, начинается продовольственный кризис, чудовищное ухудшение армейской дисциплины. Обстановка в тылу становится все более напряженной. Из состава России выходят Украина и Финляндия. Октябрьская революция, большевики у власти. «Декрет о мире». Россия выходит из войны.
Доп. информация: WEB-DL от Nikolspup.
Тип релиза: WEB-DL 1080p
Контейнер: MKV
Видео: MPEG-4 AVC, 1920x1080 (16:9), 25.000 fps, ~3500 Kbps
Аудио: Russian AC3, 2 ch, 48 KHz, 192 Kbps
Сэмпл

MediaInfo

General
Unique ID : 196244953344522096817762203106666339674 (0x93A36738A58A20099BB08A6EE7AFDD5A)
Complete name : F:\Первая Мировая (2014, WEB-DL 1080p)\1.mkv
Format : Matroska
Format version : Version 2
File size : 1.27 GiB
Duration : 53mn 29s
Overall bit rate : 3 397 Kbps
Movie name : Pervaya.mirovaya.(01.seriya).2014.WEB-DL.(1080p).MediaClub
Encoded date : UTC 2014-08-25 14:41:24
Writing application : mkvmerge v5.8.0 ('No Sleep / Pillow') built on Sep 2 2012 15:37:04
Writing library : libebml v1.2.3 + libmatroska v1.3.0
Video
ID : 1
Format : AVC
Format/Info : Advanced Video Codec
Format profile : High@L4.0
Format settings, CABAC : Yes
Format settings, ReFrames : 2 frames
Codec ID : V_MPEG4/ISO/AVC
Duration : 53mn 29s
Bit rate : 3 138 Kbps
Width : 1 920 pixels
Height : 1 080 pixels
Display aspect ratio : 16:9
Frame rate mode : Constant
Frame rate : 25.000 fps
Color space : YUV
Chroma subsampling : 4:2:0
Bit depth : 8 bits
Scan type : Progressive
Bits/(Pixel*Frame) : 0.061
Stream size : 1.17 GiB (92%)
Default : Yes
Forced : Yes
Audio
ID : 2
Format : AC-3
Format/Info : Audio Coding 3
Mode extension : CM (complete main)
Format settings, Endianness : Big
Codec ID : A_AC3
Duration : 53mn 29s
Bit rate mode : Constant
Bit rate : 192 Kbps
Channel(s) : 2 channels
Channel positions : Front: L R
Sampling rate : 48.0 KHz
Bit depth : 16 bits
Compression mode : Lossy
Stream size : 73.5 MiB (6%)
Language : Russian
Default : Yes
Forced : Yes

Скриншоты

[Профиль] [ЛС]
Кто просматривает тему:

Форум Тема Автор Размер
BBC BBC: Ада Лавлейс: первая леди программирования / Calculating Ada: The Countess of Computing (Nat Sharman) [2015 г., Документальный, научно-популярный, математика, HDTVRip 720p] skorpionN 1.79 GB
Discovery Discovery: Плутон: первая встреча / Direct from Pluto-The First Encounter (Shelley Ayres) [2015 г., Документальный, научно-популярный, HDTVRip 720p] skorpionN 1.13 GB
National Geographic National Geographic: Апокалипсис: Первая мировая война / Apocalypse: World War I [01-05 из 05] (2014) HDTVRip sergej644 3.22 GB
ТВ - Шоу КВН-2015. Первая 1/8 финала [01.03] (2015) SATRip sergej644 1.51 GB
Юмористические фильмы и передачи КВН-2015. Премьер-лига. 1/4 финала. Игра первая [08.08] (2015) HDTVRip от GeneralFilm достали все 1.18 GB
Юмористические фильмы и передачи КВН-2016. Высшая лига. Первая игра. [28.02] (2016) HDTV 1080i от MediaClub достали все 6.21 GB
Юмористические фильмы и передачи КВН-2016. Высшая лига. Первая игра. [28.02] (2016) HDTVRip достали все 1.6 GB
ТВ - Шоу КВН-2016. Премьер-лига. 1/2 финала. Игра первая [12.08] (2016) HDTV 1080i достали все 5.33 GB
Показать сообщения:    

Текущее время: Сегодня 20:11

Часовой пояс: GMT



Вы не можете начинать темы
Вы не можете отвечать на сообщения
Вы не можете редактировать свои сообщения
Вы не можете удалять свои сообщения
Вы не можете голосовать в опросах
Вы не можете прикреплять файлы к сообщениям
Вы не можете скачивать файлы