Первая Мировая [01-08 из 08] (2014) DVDRip от Generalfilm | КПК

 
Автор Сообщение

Белочка ®

Пол:

Стаж: 5 лет 1 месяц

Сообщений: 2089



Награды: 1 (Подробнее)

Girls (Количество: 1)
Торрент-статистика

Создавать темы 15-Дек-2014 19:27

[Цитировать]

Название: Первая мировая
Год выхода: 2014
Жанр: Документальный, драма, военный, история
Режиссер: Андрей Верещагин, Алексей Федосов (II)
О фильме:
В 2014 году - сто лет начала одной из самых страшных войн в истории человечества. Десять миллионов солдат и более двадцати миллионов мирных жителей стали ее жертвами. Она навсегда изменила и мир и цивилизацию. Этот фильм - рассказ о том, чем стала война для народов Российской империи, о героизме и верности долгу, о стране, которая прошла страшные испытания, и, одолев внешнего врага, рухнула не сумев решить внутренние проблемы. Герой фильма - одесский мальчик Родион, сбежавший добровольцем на фронт. Так начиналась биография будущего маршала дважды Героя Советского Союза Родиона Малиновского. В фильме воссозданы масштабные сражения и штурмы крепостей, воздушные налеты и кавалерийские атаки, применение отравляющих газов и первые танки.

Страна: Россия
Студия: Компания "Babich-design" по заказу "Star Media"
Продолжительность: 8 x ~ 00:53:00
Перевод: Не требуется
Файл
Качество: DVDRip | КПК
Видео: MPEG-4 AVC (x264), 640x360, ~500 kbps, 25.000 fps
Аудио: AAC LC, 44.1 KHz, 2 ch, 128 Kbps
Субтитры: Нет
Семпл

Скриншоты

MI

Complete name : E:KinoPervaya.Mirovaya.2014.AVC.DVDRip.KPK.GeneralfilmPervaya.Mirovaya.2014.(4.seriya.iz.8).AVC.DVDRip.KPK.Generalfilm.mp4
Format : MPEG-4
Format profile : Base Media
Codec ID : isom
File size : 239 MiB
Duration : 52mn 54s
Overall bit rate mode : Variable
Overall bit rate : 632 Kbps
Encoded date : UTC 2014-11-24 06:11:05
Tagged date : UTC 2014-11-24 06:11:05
Video
ID : 1
Format : AVC
Format/Info : Advanced Video Codec
Format profile : High@L4.1
Format settings, CABAC : Yes
Format settings, ReFrames : 8 frames
Codec ID : avc1
Codec ID/Info : Advanced Video Coding
Duration : 52mn 54s
Bit rate : 500 Kbps
Maximum bit rate : 3 256 Kbps
Width : 640 pixels
Height : 360 pixels
Display aspect ratio : 16:9
Frame rate mode : Constant
Frame rate : 25.000 fps
Color space : YUV
Chroma subsampling : 4:2:0
Bit depth : 8 bits
Scan type : Progressive
Bits/(Pixel*Frame) : 0.087
Stream size : 189 MiB (79%)
Writing library : x264 core 130 r2273 b3065e6
Encoding settings : cabac=1 / ref=8 / deblock=1:-1:-1 / analyse=0x3:0x133 / me=umh / subme=10 / psy=1 / psy_rd=1.00:0.00 / mixed_ref=1 / me_range=24 / chroma_me=1 / trellis=2 / 8x8dct=1 / cqm=0 / deadzone=21,11 / fast_pskip=1 / chroma_qp_offset=-2 / threads=3 / lookahead_threads=1 / sliced_threads=0 / nr=0 / decimate=1 / interlaced=0 / bluray_compat=0 / constrained_intra=0 / bframes=8 / b_pyramid=2 / b_adapt=2 / b_bias=0 / direct=3 / weightb=1 / open_gop=0 / weightp=2 / keyint=250 / keyint_min=126 / scenecut=40 / intra_refresh=0 / rc_lookahead=40 / rc=2pass / mbtree=1 / bitrate=500 / ratetol=1.0 / qcomp=0.60 / qpmin=0 / qpmax=69 / qpstep=4 / cplxblur=20.0 / qblur=0.5 / ip_ratio=1.40 / aq=1:1.00
Encoded date : UTC 2014-11-24 06:11:05
Tagged date : UTC 2014-11-24 06:11:56
Audio
ID : 2
Format : AAC
Format/Info : Advanced Audio Codec
Format profile : LC
Codec ID : 40
Duration : 52mn 54s
Bit rate mode : Variable
Bit rate : 128 Kbps
Maximum bit rate : 148 Kbps
Channel count : 2 channels
Channel positions : Front: L R
Sampling rate : 48.0 KHz
Compression mode : Lossy
Delay relative to video : 80ms
Stream size : 48.4 MiB (20%)
Encoded date : UTC 2014-11-24 06:11:50
Tagged date : UTC 2014-11-24 06:11:56
Релиз от:
[Профиль] [ЛС]
Кто просматривает тему:

Форум Тема Автор Размер
BBC BBC: Ада Лавлейс: первая леди программирования / Calculating Ada: The Countess of Computing (Nat Sharman) [2015 г., Документальный, научно-популярный, математика, HDTVRip 720p] skorpionN 1.79 GB
Discovery Discovery: Плутон: первая встреча / Direct from Pluto-The First Encounter (Shelley Ayres) [2015 г., Документальный, научно-популярный, HDTVRip 720p] skorpionN 1.13 GB
National Geographic National Geographic: Апокалипсис: Первая мировая война / Apocalypse: World War I [01-05 из 05] (2014) HDTVRip sergej644 3.22 GB
ТВ - Шоу КВН-2015. Первая 1/8 финала [01.03] (2015) SATRip sergej644 1.51 GB
Юмористические фильмы и передачи КВН-2015. Премьер-лига. 1/4 финала. Игра первая [08.08] (2015) HDTVRip от GeneralFilm достали все 1.18 GB
Юмористические фильмы и передачи КВН-2016. Высшая лига. Первая игра. [28.02] (2016) HDTV 1080i от MediaClub достали все 6.21 GB
Юмористические фильмы и передачи КВН-2016. Высшая лига. Первая игра. [28.02] (2016) HDTVRip достали все 1.6 GB
ТВ - Шоу КВН-2016. Премьер-лига. 1/2 финала. Игра первая [12.08] (2016) HDTV 1080i достали все 5.33 GB
Показать сообщения:    

Текущее время: Сегодня 20:44

Часовой пояс: GMT



Вы не можете начинать темы
Вы не можете отвечать на сообщения
Вы не можете редактировать свои сообщения
Вы не можете удалять свои сообщения
Вы не можете голосовать в опросах
Вы не можете прикреплять файлы к сообщениям
Вы не можете скачивать файлы