Первая любовь / Ilk Ask (Нихат Дурак / Nihat Durak) [2006, Турция, драма, комедия, DVDRip] DVO

 
Автор Сообщение

TorrentFilm ®

Пол:

Стаж: 2 года

Сообщений: 7741



Награды: Нет

Торрент-статистика

Создавать темы 12-Июн-2015 00:04

[Цитировать]

Первая любовь / İlk Aşk
Страна: Турция
Жанр: драма, комедия
Год выпуска: 2006
Продолжительность: 01:56:11
Перевод: Любительский (двухголосый закадровый) студия ИндивИдуалист
Cубтитры: нет
Оригинальная аудиодорожка: турецкий
Режиссер: Нихат Дурак / Nihat Durak
В ролях: Четин Текиндор / Çetin Tekindor, Вахиде Гердюм / Vahide Perçin, Тарик Пабучджуоглу / Tarik Pabuccuoglu, Халит Эргенч / Halit Ergenç, Долунай Ойсерт / Dolunay Soysert, Рафаэлле Чедолини / Rafaelle Cedolini, Сенай Гюрлер // Senay Gürler, Неслихан Атагюль / Neslihan Atagül, Окан Ялабык / Okan Yalabik, Айсен Груда / Aysen Gruda, Эрол Гюнайдин / Erol Günaydin, Азра Акин / Azra Akin, Эмрах Эрен / Emrah Eren
Описание: В поселке на берегу Эгейского моря начало 1990-х годов. Далеко позади остались дни великолепия одной из передовых семей поселка Арифоуллары. Все их земли распроданы, у них ничего не осталось, кроме старой дышащей на ладан фабрики оливкового масла. Глава семьи Ариф - восьмидесятипятилетний вздорный старик, много лет назад оставивший семейные дела.
Единственное, что интересует его сына Азми - это примирение со своей бывшей женой Невин. Их сын Кемаль грезит мечтой о легких деньгах и мечется между женой и любовницей. Самый младший член семьи Ариф Эге пребывает в переходном возрасте и испытывает муки первой любви. Главную линию повествования составляют истории первой любви героев фильма из различных поколений и то, к чему они привели.
Доп. информация: http://www.imdb.com/title/tt0856791/
Сэмпл: http://multi-up.com/1053044
Качество видео: DVDRip
Формат видео: AVI
Видео: XviD, 720x416, 25.000 fps, 1342 kbps
Аудио: AC3, 48000 Hz, 6 ch, 448 kbps (русский)
Аудио 2: AC3, 48000 Hz, 6 ch, 448 kbps (турецкий)

MediaInfo

General
Complete name : F:\РУТРЕКЕР\Первая любовь\ILK_ASK.avi
Format : AVI
Format/Info : Audio Video Interleave
File size : 1.83 GiB
Duration : 1h 56mn
Overall bit rate : 2 253 Kbps
Writing application : VirtualDubMod 1.5.10.2 (build 2540/release)
Writing library : VirtualDubMod build 2540/release
Video
ID : 0
Format : MPEG-4 Visual
Format profile : Advanced Simple@L5
Format settings, BVOP : 1
Format settings, QPel : No
Format settings, GMC : No warppoints
Format settings, Matrix : Custom
Codec ID : XVID
Codec ID/Hint : XviD
Duration : 1h 56mn
Bit rate : 1 342 Kbps
Width : 720 pixels
Height : 416 pixels
Display aspect ratio : 1.731
Frame rate : 25.000 fps
Color space : YUV
Chroma subsampling : 4:2:0
Bit depth : 8 bits
Scan type : Progressive
Compression mode : Lossy
Bits/(Pixel*Frame) : 0.179
Stream size : 1.09 GiB (60%)
Writing library : XviD 1.2.1 (UTC 2008-12-04)
Audio #1
ID : 1
Format : AC-3
Format/Info : Audio Coding 3
Mode extension : CM (complete main)
Format settings, Endianness : Big
Codec ID : 2000
Duration : 1h 56mn
Bit rate mode : Constant
Bit rate : 448 Kbps
Channel(s) : 6 channels
Channel positions : Front: L C R, Side: L R, LFE
Sampling rate : 48.0 KHz
Bit depth : 16 bits
Compression mode : Lossy
Stream size : 372 MiB (20%)
Alignment : Split accross interleaves
Interleave, duration : 40 ms (1.00 video frame)
Interleave, preload duration : 500 ms
Language : Turkish
Audio #2
ID : 2
Format : AC-3
Format/Info : Audio Coding 3
Mode extension : CM (complete main)
Format settings, Endianness : Big
Codec ID : 2000
Duration : 1h 56mn
Bit rate mode : Constant
Bit rate : 448 Kbps
Channel(s) : 6 channels
Channel positions : Front: L C R, Side: L R, LFE
Sampling rate : 48.0 KHz
Bit depth : 16 bits
Compression mode : Lossy
Stream size : 372 MiB (20%)
Alignment : Split accross interleaves
Interleave, duration : 40 ms (1.00 video frame)
Interleave, preload duration : 500 ms

Скриншот c названием фильма

Скриншоты


[Профиль] [ЛС]

Создавать темы 06-Авг-2015 22:29 (спустя 1 месяц 24 дня)

Топик был перенесен из форума Фильмы до 2014 года в форум Фильмы до 2012 года
sergej644
 
Кто просматривает тему:

Форум Тема Автор Размер
BBC BBC: Ада Лавлейс: первая леди программирования / Calculating Ada: The Countess of Computing (Nat Sharman) [2015 г., Документальный, научно-популярный, математика, HDTVRip 720p] skorpionN 1.79 GB
Discovery Discovery: Плутон: первая встреча / Direct from Pluto-The First Encounter (Shelley Ayres) [2015 г., Документальный, научно-популярный, HDTVRip 720p] skorpionN 1.13 GB
National Geographic National Geographic: Апокалипсис: Первая мировая война / Apocalypse: World War I [01-05 из 05] (2014) HDTVRip sergej644 3.22 GB
ТВ - Шоу КВН-2015. Первая 1/8 финала [01.03] (2015) SATRip sergej644 1.51 GB
Юмористические фильмы и передачи КВН-2015. Премьер-лига. 1/4 финала. Игра первая [08.08] (2015) HDTVRip от GeneralFilm достали все 1.18 GB
Юмористические фильмы и передачи КВН-2016. Высшая лига. Первая игра. [28.02] (2016) HDTV 1080i от MediaClub достали все 6.21 GB
Юмористические фильмы и передачи КВН-2016. Высшая лига. Первая игра. [28.02] (2016) HDTVRip достали все 1.6 GB
ТВ - Шоу КВН-2016. Премьер-лига. 1/2 финала. Игра первая [12.08] (2016) HDTV 1080i достали все 5.33 GB
Показать сообщения:    

Текущее время: Сегодня 16:25

Часовой пояс: GMT



Вы не можете начинать темы
Вы не можете отвечать на сообщения
Вы не можете редактировать свои сообщения
Вы не можете удалять свои сообщения
Вы не можете голосовать в опросах
Вы не можете прикреплять файлы к сообщениям
Вы не можете скачивать файлы