Пентхаус с видом на север / Penthouse North (Джозеф Рубин / Joseph Ruben) [2013, США, триллер, драма, детектив, HDRip] Dub (Чистый звук)

 
Автор Сообщение

reversefile ®

Пол:

Стаж: 4 года 5 месяцев

Сообщений: 842

Откуда: ReverseFile.org



Награды: Нет

Торрент-статистика

Создавать темы 03-Июл-2014 16:58

[Цитировать]

Пентхаус с видом на север / Penthouse North
Выпущено: США, Demarest Films, Lionsgate Productions Ltd.
Жанр: триллер, драма, детектив
Год выпуска: 2013
Продолжительность: 01:25:37
Перевод: Профессиональный (дублированный) Line Отред.
Cубтитры: нет
Режиссер: Джозеф Рубин / Joseph Ruben
В ролях: Мишель Монахэн, Майкл Китон, Бэрри Слоун, Каньехтио Хорн, Эндрю В. Уолкер, Оливье Супернант, Тимоти Пол Кодерр, Тревор Хэйес, Жасмин Чан, Намукаса Басудде
Описание: После трагического происшествия девушка-фотокорреспондент слепнет. Злая на весь мир, она отгораживается от внешнего мира, закрывшись в нью-йоркском пентхаусе. Её единственная отрада — молодой человек, который хоть как-то помогает ей не пасть духом. И вот однажды в квартиру врывается преступник-садист, ищущий спрятанные ценности. Героине приходится преодолевать боль и страх перед внешним миром, чтобы выжить…
kinopoisk
Сэмпл: http://sendfile.su/995147
Качество видео: HDRip
Формат видео: AVI
Видео: MPEG4, XviD, 704x384 (16:9), 23.976 fps, 2 005 Kbps (0.309 bit/pixel)
Аудио: AC-3, 48.0 KHz, 2 ch, 256 Kbps, CBR-

MediaInfo

Общее
Полное имя : K:\Penthays.s.vidom.na.sever.2013.D.HDRip.1400MB.avi
Формат : AVI
Формат/Информация : Audio Video Interleave
Размер файла : 1,36 Гбайт
Продолжительность : 1 ч. 25 м.
Общий поток : 2271 Кбит/сек
Программа кодирования : VirtualDubMod 1.5.10.2 (build 2540/release)
Библиотека кодирования : VirtualDubMod build 2540/release
Видео
Идентификатор : 0
Формат : MPEG-4 Visual
Профиль формата : Advanced Simple@L5
Параметр BVOP формата : 2
Параметр QPel формата : Нет
Параметр GMC формата : Без точки перехода
Параметр матрицы формата : Выборочная
Идентификатор кодека : XVID
Идентификатор кодека/Подсказка : XviD
Продолжительность : 1 ч. 25 м.
Битрейт : 2005 Кбит/сек
Ширина : 704 пикселя
Высота : 384 пикселя
Соотношение сторон : 1,85:1
Частота кадров : 23,976 кадра/сек
Цветовое пространство : YUV
Субдискретизация насыщенности : 4:2:0
Битовая глубина : 8 бит
Тип развёртки : Прогрессивная
Метод сжатия : С потерями
Бит/(Пиксели*Кадры) : 0.309
Размер потока : 1,20 Гбайт (88%)
Библиотека кодирования : XviD 73
Аудио
Идентификатор : 1
Формат : AC-3
Формат/Информация : Audio Coding 3
Расширение режима : CM (complete main)
Параметр Endianness формата : Big
Идентификатор кодека : 2000
Продолжительность : 1 ч. 25 м.
Вид битрейта : Постоянный
Битрейт : 256 Кбит/сек
Каналы : 2 канала
Расположение каналов : Front: L R
Частота : 48,0 КГц
Битовая глубина : 16 бит
Метод сжатия : С потерями
Размер потока : 157 Мбайт (11%)
Выравнивание : Разделение по промежуткам
Продолжительность промежутка : 42 мс. (1,00 видеокадр)
Время предзагрузки промежутка : 500 мс.

Скриншоты

[Профиль] [ЛС]
Кто просматривает тему:

Показать сообщения:    

Текущее время: Сегодня 20:24

Часовой пояс: GMT



Вы не можете начинать темы
Вы не можете отвечать на сообщения
Вы не можете редактировать свои сообщения
Вы не можете удалять свои сообщения
Вы не можете голосовать в опросах
Вы не можете прикреплять файлы к сообщениям
Вы не можете скачивать файлы