Пенсильвания / Серии: 1-16 из 16 (Владимир Виноградов) [2015,детектив, драма, SATRip-AVC]

 
Автор Сообщение

Aleksan66 ®

Стаж: 2 месяца 18 дней

Сообщений: 10



Награды: Нет

Торрент-статистика

Создавать темы 04-Окт-2016 01:50

[Цитировать]

Пенсильвания --
Год выпуска: 2015
Производство: Россия, "АТОС-фильм"
Жанр: детектив, драма
Продолжительность: 00:47:00
Субтитры: нет
--
Режиссёр: Владимир Виноградов
--
В ролях: Константин Крюков, Александр Домогаров, Дмитрий Ермак, Александра Ребенок, Игорь Верник, Ольга Дибцева, Александр Семчев, Андрей Тартаков, Игорь Филиппов, Евгения Дмитриева, Анна Казючиц, Максим Литовченко, Михаил Солодко, Дарья Семёнова, Дмитрий Блохин, Александр Пацевич, Александр Тараньжин, Александр Серов-Останкинский, Алексей Михайлов , Андрей Сорокин , Вера Воронкова, Виктория Романенко, Любовь Зайцева, Олег Новиков, Олег Осипов , Дмитрий Сутырин, Игорь Фурманюк, Ольга Хохлова, Владимир Храбров, Константин Чепурин, Кристина Кучеренко, Нана Муштакова, Галина Анисимова , Ирина Лазарева, Олег Дуленин, Леонид Закошанский, Татьяна Мухина , Олеся Остапенко, Дарья Снадина, Егор Тимцуник, Татьяна Виноградова
Описание: За дикость нравов отдаленный поселок Поливаново в глуши средней полосы России прозван местными жителями штатом Пенсильвания. И не зря. То, что произошло здесь, оборачивается запутанным и драматичным делом со многими человеческими жертвами, и повергает в ужас даже видавших виды полицейских...В свой родной поселок на похороны матери приезжает известный журналист Козлов. Во время поминок в сельском доме пропадает его трехлетний сын. Няню мальчика находят мертвой на заднем дворе с пробитой головой. Местная полиция не спешит ловить преступника, поскольку дело запутанное. Козлов задействует свои связи в Москве, и в Поливаново направляют следственную группу в составе трех человек – следователя Морозова, оперативника Сергеева и эксперта Дворникову. Однако весь поселок что-то скрывает от приезжих слуг правопорядка…
--

--
--
Качество: SATRip-AVC
Формат: MKV
Видео кодек: H.264
Аудио кодек: AC3
Видео: MPEG4 Video (H264), 720x400, 25fps,1500 Kbps,bit/pixel 0.208
Аудио: AC3 48000Hz, stereo, 192kbps,2 ch
--

MI

Общее
Уникальный идентификатор : 253910476550113168845010120600035651262 (0xBF05610605D1C7B7ADED3524F11DEEBE)
Полное имя : G:\Пенсильвания\01 серия_Пенсильвания_rip by_Aleksan55.mkv
Формат : Matroska
Версия формата : Version 2
Размер файла : 572 Мбайт
Продолжительность : 47 м.
Общий поток : 1694 Кбит/сек
Дата кодирования : UTC 2016-10-03 13:22:51
Программа кодирования : mkvmerge v7.8.0 ('River Man') 32bit built on Apr 3 2015 12:11:22
Библиотека кодирования : libebml v1.3.1 + libmatroska v1.4.2
Видео
Идентификатор : 1
Формат : AVC
Формат/Информация : Advanced Video Codec
Профиль формата : High@L4.1
Параметр CABAC формата : Да
Параметр ReFrames формата : 12 кадров
Идентификатор кодека : V_MPEG4/ISO/AVC
Продолжительность : 47 м.
Битрейт : 1500 Кбит/сек
Ширина : 720 пикселей
Высота : 400 пикселей
Соотношение сторон : 16:9
Режим частоты кадров : Постоянный
Частота кадров : 25,000 кадров/сек
Цветовое пространство : YUV
Субдискретизация насыщенности : 4:2:0
Битовая глубина : 8 бит
Тип развёртки : Прогрессивная
Бит/(Пиксели*Кадры) : 0.208
Размер потока : 495 Мбайт (87%)
Библиотека кодирования : x264 core 148 r2638 7599210
Настройки программы : cabac=1 / ref=12 / deblock=1:0:0 / analyse=0x3:0x133 / me=umh / subme=10 / psy=1 / psy_rd=1.00:0.00 / mixed_ref=0 / me_range=32 / chroma_me=0 / trellis=2 / 8x8dct=1 / cqm=0 / deadzone=21,11 / fast_pskip=0 / chroma_qp_offset=-2 / threads=6 / lookahead_threads=1 / sliced_threads=0 / nr=0 / decimate=1 / interlaced=0 / bluray_compat=0 / constrained_intra=0 / bframes=12 / b_pyramid=2 / b_adapt=2 / b_bias=0 / direct=3 / weightb=1 / open_gop=0 / weightp=2 / keyint=250 / keyint_min=25 / scenecut=40 / intra_refresh=0 / rc_lookahead=40 / rc=2pass / mbtree=1 / bitrate=1500 / ratetol=1.0 / qcomp=0.80 / qpmin=0 / qpmax=39 / qpstep=4 / cplxblur=20.0 / qblur=0.5 / ip_ratio=1.40 / aq=1:1.20
Default : Да
Forced : Нет
Цветовой диапазон : Limited
Основные цвета : BT.601 PAL
Характеристики трансфера : BT.470 System B, BT.470 System G
Коэффициенты матрицы : BT.601
Аудио
Идентификатор : 2
Формат : AC-3
Формат/Информация : Audio Coding 3
Расширение режима : CM (complete main)
Параметр Endianness формата : Big
Идентификатор кодека : A_AC3
Продолжительность : 47 м.
Вид битрейта : Постоянный
Битрейт : 192 Кбит/сек
Каналы : 2 канала
Расположение каналов : Front: L R
Частота : 48,0 КГц
Метод сжатия : С потерями
Размер потока : 64,8 Мбайт (11%)
Default : Да
Forced : Нет

Скриншоты

Внимание! Раздача ведётся путём добавления новых серий

Внимание! Раздача ведётся путём добавления новых серий; при каждом добавлении создаётся новый торрент.
Чтобы начать докачку новой серии, пользователям необходимо сделать следующее:
1. Остановить скачивание;
2. Удалить старый торрент у себя из клиента (старые серии удалять не надо);
3. Скачать новый торрент и запустить его у себя в клиенте вместо старого, при этом указать клиенту путь в старую папку куда и должно происходить скачивание новых серий. Ваш клиент при этом должен произвести хеширование (проверку) старой папки и будет докачивать только те серии, которых у вас ещё нет. Старые серии при этом не удаляются, а продолжают раздаваться! Eсли вы уже удалили старые серии, то предотвратить повторную закачку старых серий можно, отжав галочку в соответствующих местах при запуске нового торрента.
--Рекламы нет.Добавлена 13-16 серия.
[Профиль] [ЛС]
Показать сообщения:    

Текущее время: Сегодня 21:33

Часовой пояс: GMT



Вы не можете начинать темы
Вы не можете отвечать на сообщения
Вы не можете редактировать свои сообщения
Вы не можете удалять свои сообщения
Вы не можете голосовать в опросах
Вы не можете прикреплять файлы к сообщениям
Вы не можете скачивать файлы