Пельмени (2013) HDTVRip 1080p от MediaClub

 
Автор Сообщение

sergej644 ®

Пол:

Стаж: 4 года 11 месяцев

Сообщений: 6038

Откуда: Soviet Union



Награды: Нет

Торрент-статистика

Создавать темы 28-Янв-2015 19:14

[Цитировать]

Информация о фильме
Оригинальное название: Пельмени
Год выхода: 2013
Жанр: Черная комедия
Режиссер: Геннадий Островский
В ролях: Тимофей Трибунцев, Артём Осипов, Нина Лощинина, Один Ланд Байрон, Мария Данилюк
О фильме:
Есть две безусловные вещи — это мама и пельмени, которые она лепит. Даже если все через жопу и оттуда нет выхода, даже если твоя жена изменяет тебе с охранником филармонии, а твой младший брат посещает гей-клубы и зарабатывает в разы больше тебя, даже если тебя укусила бешеная собака, а в носовых платках тебе присылают отрубленные пальцы, помни, что всегда есть ценности, которые остаются незыблемыми: будь собой и никогда не ври маме!

Страна: Россия
Студия: Студия "Теорема"
Продолжительность: 01:32:38
Язык: Русский
Файл
Кодек: MPEG-4 AVC
Качество: HDTVRip 1080p
Видео: 5100 Кбит/с, 1920x960, 25.000 кадр/с
Звук: Русский (АС3, 6 ch, 448 Кбит/с)

Скриншоты

MI

Общее
Полное имя                               : Pelmeni.2013.x264.HDTVRip(1080p).MediaClub.mkv
Формат                                   : Matroska
Версия формата                           : Version 2
Размер файла                             : 3,58 Гбайт
Продолжительность                        : 1 ч. 32 м.
Общий поток                              : 5537 Кбит/сек
Дата кодирования                         : UTC 2014-05-28 15:24:07
Программа кодирования                    : mkvmerge v5.4.0 ('Piper') built on Mar 10 2012 13:34:39
Библиотека кодирования                   : libebml v1.2.3 + libmatroska v1.3.0
Видео
Идентификатор                            : 1
Формат                                   : AVC
Формат/Информация                        : Advanced Video Codec
Профиль формата                          : High@L4.1
Параметр CABAC формата                   : Да
Параметр ReFrames формата                : 4 кадра
Идентификатор кодека                     : V_MPEG4/ISO/AVC
Продолжительность                        : 1 ч. 32 м.
Битрейт                                  : 5100 Кбит/сек
Ширина                                   : 1920 пикселей
Высота                                   : 960 пикселей
Соотношение сторон                       : 2,000
Режим частоты кадров                     : Постоянный
Частота кадров                           : 25,000 кадров/сек
Цветовое пространство                    : YUV
Субдискретизация насыщенности            : 4:2:0
Битовая глубина                          : 8 бит
Тип развёртки                            : Прогрессивная
Бит/(Пиксели*Кадры)                      : 0.111
Размер потока                            : 3,22 Гбайт (90%)
Библиотека кодирования                   : x264 core 125 r2208 d9d2288
Настройки программы                      : cabac=1 / ref=4 / deblock=1:-3:-2 / analyse=0x3:0x133 / me=umh / subme=10 / psy=1 / psy_rd=1.00:0.20 / mixed_ref=1 / me_range=48 / chroma_me=1 / trellis=2 / 8x8dct=1 / cqm=0 / deadzone=21,11 / fast_pskip=0 / chroma_qp_offset=-3 / threads=6 / lookahead_threads=1 / sliced_threads=0 / nr=0 / decimate=0 / interlaced=0 / bluray_compat=0 / constrained_intra=0 / bframes=8 / b_pyramid=2 / b_adapt=2 / b_bias=0 / direct=3 / weightb=1 / open_gop=0 / weightp=2 / keyint=250 / keyint_min=25 / scenecut=40 / intra_refresh=0 / rc=2pass / mbtree=0 / bitrate=5100 / ratetol=1.0 / qcomp=0.60 / qpmin=0 / qpmax=69 / qpstep=4 / cplxblur=20.0 / qblur=0.5 / ip_ratio=1.40 / pb_ratio=1.30 / aq=1:1.00
Default                                  : Да
Forced                                   : Нет
Аудио
Идентификатор                            : 2
Формат                                   : AC-3
Формат/Информация                        : Audio Coding 3
Расширение режима                        : CM (complete main)
Параметр Endianness формата              : Big
Идентификатор кодека                     : A_AC3
Продолжительность                        : 1 ч. 32 м.
Вид битрейта                             : Постоянный
Битрейт                                  : 448 Кбит/сек
Каналы                                   : 6 каналов
Расположение каналов                     : Front: L C R, Side: L R, LFE
Частота                                  : 48,0 КГц
Битовая глубина                          : 16 бит
Метод сжатия                             : С потерями
Размер потока                            : 297 Мбайт (8%)
Язык                                     : Russian
Default                                  : Да
Forced                                   : Нет
--
[Профиль] [ЛС]
Показать сообщения:    

Текущее время: Сегодня 14:32

Часовой пояс: GMT



Вы не можете начинать темы
Вы не можете отвечать на сообщения
Вы не можете редактировать свои сообщения
Вы не можете удалять свои сообщения
Вы не можете голосовать в опросах
Вы не можете прикреплять файлы к сообщениям
Вы не можете скачивать файлы