Пекло / Sunshine (Дэнни Бойл / Danny Boyle) [2007, США, Великобритания, фантастика, триллер, приключения, BDRip-AVC] Dub + 2xAVO + Original (eng) + Subs (rus, eng)

 
Автор Сообщение

TorrentFilm ®

Пол:

Стаж: 2 года

Сообщений: 7741



Награды: Нет

Торрент-статистика

Создавать темы 19-Фев-2016 00:08

[Цитировать]

Пекло / Sunshine
«Грядут темные дни»
- Страна: США, Великобритания
Жанр: фантастика, триллер, приключения
Год выпуска: 2007
Продолжительность: 01:47:28
Перевод 1: Профессиональный (полное дублирование)
Перевод 2: Авторский (одноголосый закадровый, Ю.Живов)
Перевод 3: Авторский (одноголосый закадровый, Ю.Немахов) - отдельно
Оригинальная аудиодорожка: английский
Cубтитры: русские, английские
Навигация по главам: есть
Режиссёр: Дэнни Бойл / Danny Boyle
В ролях: Киллиан Мёрфи , Роуз Бирн, Клифф Кёртис, Мишель Йео, Крис Эванс, Хироюки Санада, Марк Стронг, Трой Гэрити, Бенедикт Вонг, Чипо Чанг, Палома Баэза, Арчи МакДональд
Описание: 2057 год. Солнце погибает, и человечество встает перед лицом вымирания. Последняя надежда планеты Земля связана с «Икаром 2» - космическим кораблем, экипаж которого состоит из восьми мужчин и женщин во главе с капитаном Канедой. Их миссия - доставить ядерный заряд, с помощью которого предполагается повторно воспламенить гаснущее Солнце.
Во время своего путешествия, находясь далеко в космическом безмолвии, в отсутствии какого-либо радиоконтакта с Землей, экипаж слышит слабые позывные сигналы с космического корабля «Икар 1», который пропал, выполняя семь лет назад ту же самую миссию, что и «Икар 2». Ужасная катастрофа ввергает миссию в очень опасную и рискованную ситуацию, и скоро команда обнаруживает, что вынуждена бороться не только за свои собственные жизни и душевное равновесие, но и за будущее всех нас...

Качество видео: BDRip-AVC (исходник - Blu-ray CEE)
Формат видео: MKV
Видео: x264, 1152х484 (2,40:1), 23,976 fps, ~3864 kbps, 0.289 bit/pixel
Аудио 1: 48 kHz, AC3 Dolby Digital, 3/2 (L,C,R,l,r) + LFE ch, ~448 kbps [русский] - дубляж
Аудио 2: 48 kHz, AC3 Dolby Digital, 3/2 (L,C,R,l,r) + LFE ch, ~448 kbps [русский] - Юрий Живов
Аудио 3: 48 kHz, AC3 Dolby Digital, 3/2 (L,C,R,l,r) + LFE ch, ~448 kbps [английский]
Аудио 4: 48 kHz, AC3 Dolby Digital, 3/2 (L,C,R,l,r) + LFE ch, ~448 kbps [русский] - Юрий Немахов - отдельно
Формат субтитров: softsub (SRT)

MediaInfo | x264 log

Format : Matroska
Format version : Version 4 / Version 2
File size : 4.00 GiB
Duration : 1h 47mn
Overall bit rate : 5 323 Kbps
Movie name : Пекло / Sunshine (2007) :: AFM ::
Encoded date : UTC 2016-02-18 12:09:02
Writing application : mkvmerge v8.3.0 ('Over the Horizon') 32bit
Writing library : libebml v1.3.1 + libmatroska v1.4.2
Video
ID : 1
Format : AVC
Format/Info : Advanced Video Codec
Format profile : High@L4.1
Format settings, CABAC : Yes
Format settings, ReFrames : 10 frames
Codec ID : V_MPEG4/ISO/AVC
Duration : 1h 47mn
Bit rate : 3 873 Kbps
Width : 1 152 pixels
Height : 484 pixels
Display aspect ratio : 2.40:1
Frame rate mode : Constant
Frame rate : 23.976 fps
Color space : YUV
Chroma subsampling : 4:2:0
Bit depth : 8 bits
Scan type : Progressive
Bits/(Pixel*Frame) : 0.290
Stream size : 2.91 GiB (73%)
Title : BDRip by AFM [RuTracker.org]
Writing library : x264 core 148 r2665+53 6629127 t_mod_Custom [8-bit@all X86_64]
Encoding settings : cabac=1 / ref=10 / deblock=1:-3:-3 / analyse=0x3:0x113 / me=umh / subme=11 / psy=1 / fade_compensate=0.00 / psy_rd=1.00:0.03 / mixed_ref=1 / me_range=32 / chroma_me=1 / trellis=2 / 8x8dct=1 / cqm=0 / deadzone=21,11 / fast_pskip=0 / chroma_qp_offset=-3 / threads=6 / lookahead_threads=1 / sliced_threads=0 / nr=0 / decimate=1 / interlaced=0 / bluray_compat=0 / constrained_intra=0 / fgo=0 / bframes=14 / b_pyramid=2 / b_adapt=2 / b_bias=0 / direct=1 / weightb=1 / open_gop=0 / weightp=2 / keyint=250 / keyint_min=23 / scenecut=40 / intra_refresh=0 / rc_lookahead=40 / rc=crf / mbtree=0 / crf=17.8000 / qcomp=0.65 / qpmin=0:0:0 / qpmax=69:69:69 / qpstep=4 / vbv_maxrate=50000 / vbv_bufsize=62500 / crf_max=0.0 / nal_hrd=none / filler=0 / ip_ratio=1.35 / pb_ratio=1.30 / aq=2:0.80 / aq-sensitivity=10.00 / aq-factor=1.00:1.00:1.00 / aq2=0 / aq3=0
Language : English
Default : Yes
Forced : No
Audio #1
ID : 2
Format : AC-3
Format/Info : Audio Coding 3
Mode extension : CM (complete main)
Format settings, Endianness : Big
Codec ID : A_AC3
Duration : 1h 47mn
Bit rate mode : Constant
Bit rate : 448 Kbps
Channel(s) : 6 channels
Channel positions : Front: L C R, Side: L R, LFE
Sampling rate : 48.0 KHz
Compression mode : Lossy
Stream size : 344 MiB (8%)
Title : Дубляж, AC3 5.1 ~448 kbps
Language : Russian
Default : Yes
Forced : No
Audio #2
ID : 3
Format : AC-3
Format/Info : Audio Coding 3
Mode extension : CM (complete main)
Format settings, Endianness : Big
Codec ID : A_AC3
Duration : 1h 47mn
Bit rate mode : Constant
Bit rate : 448 Kbps
Channel(s) : 6 channels
Channel positions : Front: L C R, Side: L R, LFE
Sampling rate : 48.0 KHz
Compression mode : Lossy
Stream size : 344 MiB (8%)
Title : AVO - Ю. Живов, AC3 5.1 ~448 kbps
Language : Russian
Default : No
Forced : No
Audio #3
ID : 4
Format : AC-3
Format/Info : Audio Coding 3
Mode extension : CM (complete main)
Format settings, Endianness : Big
Codec ID : A_AC3
Duration : 1h 47mn
Bit rate mode : Constant
Bit rate : 448 Kbps
Channel(s) : 6 channels
Channel positions : Front: L C R, Side: L R, LFE
Sampling rate : 48.0 KHz
Compression mode : Lossy
Stream size : 344 MiB (8%)
Title : Оригинал, AC3 5.1 ~448 kbps
Language : English
Default : No
Forced : No
Text #1
ID : 5
Format : UTF-8
Codec ID : S_TEXT/UTF8
Codec ID/Info : UTF-8 Plain Text
Language : Russian
Default : Yes
Forced : No
Text #2
ID : 6
Format : UTF-8
Codec ID : S_TEXT/UTF8
Codec ID/Info : UTF-8 Plain Text
Language : English
Default : No
Forced : No
Menu
00:00:00.000 : :Dying Sun
00:04:08.331 : :Final Message
00:08:11.574 : :Psych Eval
00:12:42.261 : :Risk Assessments
00:21:24.408 : :Accuracy Unknown
00:24:58.246 : :New Trajectory
00:35:16.239 : :First Priority
00:39:16.312 : :Full Sunlight
00:47:03.946 : :Icarus I
00:52:58.341 : :Abandoned Mission
00:56:26.299 : :The Airlock
01:04:06.551 : :We Love You
01:05:41.854 : :Crew Vote
01:11:23.946 : :Identify Yourself
01:17:06.663 : :Sabotage
01:24:37.989 : :Manual Override
01:30:37.598 : :Payload
01:34:22.365 : :Into the Sun
01:39:33.467 : :A Beautiful Day
01:40:53.422 : :End Titles/Avenue of Hope

x264

x264 [info]: frame I:993 Avg QP:15.91 size: 74403
x264 [info]: frame P:31612 Avg QP:17.04 size: 37555
x264 [info]: frame B:122004 Avg QP:19.90 size: 15934
x264 [info]: consecutive B-frames: 2.5% 2.3% 6.3% 12.9% 14.6% 42.0% 5.3% 2.9% 3.3% 1.3% 1.4% 1.8% 1.0% 1.9% 0.4%
x264 [info]: mb I I16..4: 8.7% 72.2% 19.1%
x264 [info]: mb P I16..4: 1.2% 19.0% 2.0% P16..4: 28.1% 36.4% 11.8% 0.0% 0.0% skip: 1.5%
x264 [info]: mb B I16..4: 0.1% 3.7% 0.3% B16..8: 38.0% 20.0% 3.7% direct: 6.3% skip:27.9% L0:46.0% L1:44.7% BI: 9.2%
x264 [info]: 8x8 transform intra:86.5% inter:62.9%
x264 [info]: coded y,uvDC,uvAC intra: 92.3% 88.9% 72.1% inter: 29.1% 27.0% 6.3%
x264 [info]: i16 v,h,dc,p: 23% 15% 9% 53%
x264 [info]: i8 v,h,dc,ddl,ddr,vr,hd,vl,hu: 9% 7% 13% 10% 13% 12% 13% 11% 13%
x264 [info]: i4 v,h,dc,ddl,ddr,vr,hd,vl,hu: 32% 5% 5% 8% 12% 10% 10% 8% 10%
x264 [info]: i8c dc,h,v,p: 41% 24% 17% 18%
x264 [info]: Weighted P-Frames: Y:98.2% UV:9.6%
x264 [info]: ref P L0: 42.5% 6.8% 18.2% 8.5% 6.6% 5.2% 4.4% 2.6% 2.4% 2.3% 0.5% 0.1%
x264 [info]: ref B L0: 64.7% 14.5% 8.2% 4.1% 3.0% 2.4% 2.0% 0.8% 0.3%
x264 [info]: ref B L1: 89.3% 10.7%
x264 [info]: kb/s:3976.28

Скриншотыс названием

Сравнения

сравнение с BDRip-AVC 2.17 Гб = (другой исходник (более тёмный, с брачком), перекроп снизу)~~ Source ~~
~~ Rip ~~
[Профиль] [ЛС]
Показать сообщения:    

Текущее время: Сегодня 08:30

Часовой пояс: GMT



Вы не можете начинать темы
Вы не можете отвечать на сообщения
Вы не можете редактировать свои сообщения
Вы не можете удалять свои сообщения
Вы не можете голосовать в опросах
Вы не можете прикреплять файлы к сообщениям
Вы не можете скачивать файлы