Пекарь и трубочист (Калью Киви) [1982, Кукольный мультфильм, VHSRip]

 
Автор Сообщение

painkiller ®

Стаж: 2 года 3 месяца

Сообщений: 582



Награды: Нет

Торрент-статистика

Создавать темы 27-Авг-2014 15:28

[Цитировать]

Пекарь и трубочист
Страна: СССР
Жанр: Кукольный мультфильм
Продолжительность: 00:09:44
Год выпуска: 1982
Перевод: Не требуется
Русские субтитры: нет
Режиссёр: Калью Киви
Описание: Музыкальный мультфильм, о том, что все профессии нужны и каждый должен заниматься своим делом.
Доп. информация: Таллинфильм
Сценарий: Т.Кяндлер
Художник-постановщик:Т.Линцбах
Оператор:Т.Таливеэ
Композитор:О.Эхала
Исходник для рипа предоставлен alenavova
Чистка звука Xfiles
Качество: VHSRip
Формат: AVI
Видео: 640x480 (1.33:1), 25 fps, XviD build 65 ~2099 kbps avg, 0.27 bit/pixel
Аудио: 48 kHz, AC3 Dolby Digital, 1/0 (C) ch, ~192.00 kbps avg
Субтитры: нет

Подробные технические данные

Формат : AVIФормат/Информация : Audio Video InterleaveРазмер файла : 160 МбайтПродолжительность : 9 м. 44 с.Общий поток : 2301 Кбит/секПрограмма кодирования : VirtualDubModRus 1.5.10.2 (build 2542/release)Правообладатель : Rutracker.orgПримечание : VHSRip by dvdss
ВидеоИдентификатор : 0Формат : MPEG-4 VisualПрофиль формата : Advanced Simple@L5Параметр BVOP формата : 2Параметр QPel формата : НетПараметр GMC формата : Без точки переходаПараметр матрицы формата : ВыборочнаяИдентификатор кодека : XVIDИдентификатор кодека/Подсказка : XviDПродолжительность : 9 м. 44 с.Битрейт : 2099 Кбит/секШирина : 640 пикс.Высота : 480 пикс.Соотношение сторон : 4:3Частота кадров : 25,000 кадр/секЦветовое пространство : YUVПодвыборка цветности : 4:2:0Битовая глубина : 8 битТип развёртки : ПрогрессивнаяМетод сжатия : С потерямиБит/(Пиксели*Кадры) : 0.273Размер потока : 146 Мбайт (91%)Библиотека кодирования : XviD 65
АудиоИдентификатор : 1Формат : AC-3Формат/Информация : Audio Coding 3Расширение режима : CM (complete main)Идентификатор кодека : 2000Продолжительность : 9 м. 44 с.Вид битрейта : ПостоянныйБитрейт : 192 Кбит/секКанал(ы) : 1 каналРасположение каналов : Front: CЧастота : 48,0 КГцБитовая глубина : 16 битМетод сжатия : С потерямиРазмер потока : 13,4 Мбайт (8%)Выравнивание : Разделение по промежуткамПродолжительность промежутка : 40 мс. (1,00 видеокадр)Время предзагрузки промежутка : 500 ms

Скриншоты

[Профиль] [ЛС]
Показать сообщения:    

Текущее время: Сегодня 15:53

Часовой пояс: GMT



Вы не можете начинать темы
Вы не можете отвечать на сообщения
Вы не можете редактировать свои сообщения
Вы не можете удалять свои сообщения
Вы не можете голосовать в опросах
Вы не можете прикреплять файлы к сообщениям
Вы не можете скачивать файлы