Пейзажи времени / TimeScapes: The Movie (2012) BDRip 1080p

 
Автор Сообщение

sergej644 ®

Пол:

Стаж: 4 года 11 месяцев

Сообщений: 6039

Откуда: Soviet Union



Награды: Нет

Торрент-статистика

Создавать темы 31-Окт-2014 11:22

[Цитировать]

Информация о фильме
Название: Пейзажи времени
Оригинальное: TimeScapes: The Movie
Год выхода: 2012
Выпущено: Southwest Light Ltd.
Страна: Новая Зеландия
Жанр: Документальный, видовой, релаксация
Продолжительность: 00:48:22
Перевод: Не требуется
Режиссер: Том Лоу
-Сюжет фильма
TimeScapes это дебютный фильм оператора и режиссера Тома Лоу. В фильме вы увидите потрясающие пейзажи, людей и дикую природу американского Юго-Запада в замедленной съемке. Лоу провел 2 года колеся по стране на своем пикапе Toyota в поисках подходящих сцен для фильма.-Файл
Кодек: x264
Формат: MKV
Качество: BDRip 1080p (Источник: Blu-ray)
Видео: MPEG-4 AVC (16:9) 1920x1080 pix, 23.976 fps, 14142 kbps, 0.284 Bits/Pixel
Аудио I: Flac (2.0) 16 bit, 48 kHz, Lossless (Musical)
Аудио II: DTS Digital Surround (5.1) 24 bit, 48 kHz, 1509 kbps (Musical)
Аудио III: Dolby Digital (5.1) 16 bit, 48 kHz, 640 kbps (Musical)
Аудио IV: AAC (2.0) 16 bit, 48 kHz, 128 kbps (Commentary)
Меню: Сохранены оригинальные чаптеры Blu-ray

MI & x264


x264 [info]: frame I:375 Avg QP:11.46 size:357126
x264 [info]: frame P:18415 Avg QP:14.03 size:133644
x264 [info]: frame B:50777 Avg QP:16.18 size: 49835-General
Unique ID : 215433865059371336611142782277424930668 (0xA2130D9CE55D16898069677C4ECE5F6C)
Format : Matroska
Format version : Version 2
File size : 5.76 GiB
Duration : 48mn 21s
Overall bit rate mode : Variable
Overall bit rate : 17.1 Mbps
Movie name : Пейзажи времени (2012) BDRip (1080p)
Encoded date : UTC 2014-10-23 10:28:30
Writing application : mkvmerge v5.8.0 ('No Sleep / Pillow') built on Sep 2 2012 15:37:04
Writing library : libebml v1.2.3 + libmatroska v1.3.0
Video
ID : 1
Format : AVC
Format/Info : Advanced Video Codec
Format profile : High@L4.1
Format settings, CABAC : Yes
Format settings, ReFrames : 4 frames
Codec ID : V_MPEG4/ISO/AVC
Duration : 48mn 21s
Nominal bit rate : 14.1 Mbps
Width : 1 920 pixels
Height : 1 080 pixels
Display aspect ratio : 16:9
Frame rate mode : Constant
Frame rate : 23.976 fps
Color space : YUV
Chroma subsampling : 4:2:0
Bit depth : 8 bits
Scan type : Progressive
Bits/(Pixel*Frame) : 0.284
Title : Release by Alex260680
Writing library : x264 core 142 r2479 dd79a61
Encoding settings : cabac=1 / ref=4 / deblock=1:-3:-3 / analyse=0x3:0x133 / me=umh / subme=11 / psy=1 / psy_rd=1.00:0.00 / mixed_ref=1 / me_range=48 / chroma_me=1 / trellis=2 / 8x8dct=1 / cqm=0 / deadzone=21,11 / fast_pskip=0 / chroma_qp_offset=-2 / threads=6 / lookahead_threads=1 / sliced_threads=0 / nr=0 / decimate=0 / interlaced=0 / bluray_compat=0 / constrained_intra=0 / bframes=4 / b_pyramid=2 / b_adapt=2 / b_bias=0 / direct=3 / weightb=1 / open_gop=0 / weightp=2 / keyint=240 / keyint_min=23 / scenecut=40 / intra_refresh=0 / rc=2pass / mbtree=0 / bitrate=14142 / ratetol=1.0 / qcomp=0.60 / qpmin=0 / qpmax=69 / qpstep=4 / cplxblur=20.0 / qblur=0.5 / ip_ratio=1.40 / pb_ratio=1.30 / aq=1:0.80
Language : English
Default : Yes
Forced : No
Audio #1
ID : 2
Format : FLAC
Format/Info : Free Lossless Audio Codec
Codec ID : A_FLAC
Duration : 48mn 21s
Bit rate mode : Variable
Channel(s) : 2 channels
Sampling rate : 48.0 KHz
Bit depth : 16 bits
Title : Flac 2.0 "Musical"
Writing library : libFLAC 1.2.1 (UTC 2007-09-17)
Language : English
Default : Yes
Forced : No
Audio #2
ID : 3
Format : DTS
Format/Info : Digital Theater Systems
Mode : 16
Format settings, Endianness : Big
Codec ID : A_DTS
Duration : 48mn 21s
Bit rate mode : Constant
Bit rate : 1 509 Kbps
Channel(s) : 6 channels
Channel positions : Front: L C R, Side: L R, LFE
Sampling rate : 48.0 KHz
Bit depth : 24 bits
Compression mode : Lossy
Stream size : 522 MiB (9%)
Title : DTS Digital Surround 5.1 "Musical"
Language : English
Default : No
Forced : No
Audio #3
ID : 4
Format : AC-3
Format/Info : Audio Coding 3
Mode extension : CM (complete main)
Format settings, Endianness : Big
Codec ID : A_AC3
Duration : 48mn 21s
Bit rate mode : Constant
Bit rate : 640 Kbps
Channel(s) : 6 channels
Channel positions : Front: L C R, Side: L R, LFE
Sampling rate : 48.0 KHz
Bit depth : 16 bits
Compression mode : Lossy
Stream size : 221 MiB (4%)
Title : Dolby Digital 5.1 "Musical"
Language : English
Default : No
Forced : No
Audio #4
ID : 5
Format : AAC
Format/Info : Advanced Audio Codec
Format profile : LC
Codec ID : A_AAC
Duration : 48mn 21s
Channel(s) : 2 channels
Channel positions : Front: L R
Sampling rate : 48.0 KHz
Compression mode : Lossy
Delay relative to video : 9ms
Title : AAC 2.0 "Commentary"
Language : English
Default : No
Forced : No
Menu
00:00:00.000 : en:Chapter 01
00:00:00.375 : en:Chapter 02
00:01:05.315 : en:Chapter 03
00:04:28.518 : en:Chapter 04
00:06:45.447 : en:Chapter 05
00:10:38.054 : en:Chapter 06
00:18:13.175 : en:Chapter 07
00:21:04.638 : en:Chapter 08
00:25:24.732 : en:Chapter 09
00:30:27.576 : en:Chapter 10
00:34:26.481 : en:Chapter 11
00:36:51.668 : en:Chapter 12
00:39:45.258 : en:Chapter 13
00:40:37.810 : en:Chapter 14
00:41:39.247 : en:Chapter 15
00:43:43.663 : en:Chapter 16
--
[Профиль] [ЛС]
Кто просматривает тему:

Форум Тема Автор Размер
Документальные HD Пейзажи времени / TimeScapes: The Movie (2012) 4K Ultra HDRip 2160p sergej644 21.22 GB
Показать сообщения:    

Текущее время: Сегодня 16:31

Часовой пояс: GMT



Вы не можете начинать темы
Вы не можете отвечать на сообщения
Вы не можете редактировать свои сообщения
Вы не можете удалять свои сообщения
Вы не можете голосовать в опросах
Вы не можете прикреплять файлы к сообщениям
Вы не можете скачивать файлы