Педаль до упора / Borning / Børning (Хальвард Брейн / Hallvard Braein) [2014, Норвегия, комедия, DVDRip] VO (Andi) + Sub Rus, Nor + Original Nor

 
Автор Сообщение

TorrentFilm ®

Пол:

Стаж: 2 года

Сообщений: 7741



Награды: Нет

Торрент-статистика

Создавать темы 19-Дек-2014 02:03

[Цитировать]

Педаль до упора / Borning / Børning
Страна: Норвегия
Жанр: комедия
Год выпуска: 2014
Продолжительность: 01:29:09
Перевод: Одноголосый закадровый (Andi)
Cубтитры: русские, норвежские
Оригинальная аудиодорожка: норвежский (отдельным файлом)
Режиссер: Хальвард Брейн / Hallvard Braein
В ролях: Андерс Баасмо Кристиансен, Тронд Хальбо, Ида Хьюсой, Дженни Скавлан, Отто Йесперсен, Оскар Люндвольд, Хенрик Местад
Описание: У Роя одна, но пламенная страсть – гонки. И как раз, когда он готовится к важному соревнованию, на горизонте появляется 14-летняя дочь, требующая к себе повышенного внимания. Увлекшись выяснением отношений с ребенком, Рой проигрывает заезд, и теперь у него только один шанс восстановить свою репутацию – участие в гонке «Северный Мыс». Кто первым доберется из Осло до самой северной точки Норвегии, тот и будет признан величайшим гонщиком всех времен и народов…
Доп. информация: Абсолютный лидер норвежского проката.
Гонки «Северный Мыс» существуют на самом деле. За последние несколько лет в них приняло участие свыше 3000 автолюбителей со всей Скандинавии. Правда, в реальности никто на скорость и время не соревнуется. Цель шоу: проехать от норвежской столицы до мыса Нордкап (самая северная точка страны и, как полагают некоторые, всей Европы). В качестве подтверждения этого подвига надо собрать коллекцию чеков с заправок по пути.
Слоганы фильма:
Насладитесь красотами Норвегии на скорости 200 км/ч
Самый быстрый и смешной фильм года

Фото с премьеры фильма





Сэмпл

Совместный релиз ВК Группы Скандинавский калейдоскоп и РГ TRANSLATORS
Перевод: М. Васильев
Озвучка: Andi
Работа со звуком: Максим Черный
Рип и титры предоставлены Скандинавским калейдоскопом
Как подключить внешнюю аудиодорожку
Заходите в тему КИНЕМАТОГРАФ НОРВЕГИИ

Качество видео: DVDRip
Формат видео: AVI
Видео: 1890 Kbps, 720x304 (2.35:1), 25 000 fps, MPEG 4 XviD
Аудио: 448 Kbps, 48.0 KHz, 16 bits, 6 ch, AC 3
Аудио 2: 448 Kbps, 48.0 KHz, 16 bits, 6 ch, AC 3
Формат субтитров: softsub (SRT)

MediaInfo

General
Complete name : C:\Users\Владелец\Desktop\born.avi
Format : AVI
Format/Info : Audio Video Interleave
File size : 1.46 GiB
Duration : 1h 29mn
Overall bit rate : 2 347 Kbps
Writing application : VirtualDubMod 1.5.10.2 (build 2540/release)
Writing library : VirtualDubMod build 2540/release
Video
ID : 0
Format : MPEG-4 Visual
Format profile : Advanced Simple@L5
Format settings, BVOP : 3
Format settings, QPel : Yes
Format settings, GMC : No warppoints
Format settings, Matrix : Default (H.263)
Codec ID : XVID
Codec ID/Hint : XviD
Duration : 1h 29mn
Bit rate : 1 890 Kbps
Width : 720 pixels
Height : 304 pixels
Display aspect ratio : 2.35:1
Frame rate : 25.000 fps
Color space : YUV
Chroma subsampling : 4:2:0
Bit depth : 8 bits
Scan type : Progressive
Compression mode : Lossy
Bits/(Pixel*Frame) : 0.345
Stream size : 1.18 GiB (81%)
Writing library : XviD 1.2.1 (UTC 2008-12-04)
Audio
ID : 1
Format : AC-3
Format/Info : Audio Coding 3
Mode extension : CM (complete main)
Format settings, Endianness : Big
Codec ID : 2000
Duration : 1h 29mn
Bit rate mode : Constant
Bit rate : 448 Kbps
Channel(s) : 6 channels
Channel positions : Front: L C R, Side: L R, LFE
Sampling rate : 48.0 KHz
Bit depth : 16 bits
Compression mode : Lossy
Stream size : 286 MiB (19%)
Alignment : Split accross interleaves
Interleave, duration : 40 ms (1.00 video frame)
Interleave, preload duration : 500 ms

Скриншот c названием фильма

Скриншоты








[Профиль] [ЛС]
Показать сообщения:    

Текущее время: Сегодня 22:22

Часовой пояс: GMT



Вы не можете начинать темы
Вы не можете отвечать на сообщения
Вы не можете редактировать свои сообщения
Вы не можете удалять свои сообщения
Вы не можете голосовать в опросах
Вы не можете прикреплять файлы к сообщениям
Вы не можете скачивать файлы