Паук / Гознак (Евгений Звездаков) (Серии 1-8 из 8) [2015 , Детектив, криминал, триллер , HDTVRip 1080p]

 
Автор Сообщение

Враг Нароода ®

Стаж: 1 год 8 месяцев

Сообщений: 112



Награды: 2 (Подробнее)

Mega Seeder 1 (Количество: 1) За внесенный вклад в развитие сайта (Количество: 1)
Торрент-статистика

Создавать темы 23-Окт-2015 14:48

[Цитировать]

-- Паук / Гознак Серии 1-8 из 8-- --Год выпуска: 2015
Выпущено: Россия , Красный квадрат, Студия Русский Проект
Жанр:Детектив, криминал, триллер
Продолжительность: 00:50:00
Серии: 1-8
Количество серий в сезоне: 8
Перевод :Не требуется
Субтитры: Нет-- --Режиссер: Евгений Звездаков --В ролях: Андрей Смоляков, Марина Александрова, Владимир Юматов, Мария Андреева, Сергей Угрюмов, Сергей Годин, Марк Богатырёв, Каролина Грушка, Родион Нахапетов, Андрис Лиелайс, Юрий Тарасов, Вадим Андреев, Алексей Бардуков, Юрий Чурсин, Даниэла Стоянович, Александр Дробитько, Константин Демидов (II), Дмитрий Астрахан, Екатерина Волкова, Софья Синицына, Иван Волков, Светлана Мамрешева, Игорь Филиппов, Елизавета Зарубина, Анна Легчилова, Анастасия Шалонько, Анастасия Фурса-- Третий фильм проекта об опергруппе Черкасова - «Гознак». По мотивам еще одной знаменитой истории - ограблении Госбанка Армянской ССР в 1977 году, когда братья Калачян обнесли казну на полтора миллиона рублей (два миллиона долларов по тогдашнему курсу). Это было самое крупное похищение в Советском Союзе. 1967 год. Москва. Убита манекенщица из Дома моды. На место преступления приезжает группа майора Черкасова. Он срочным порядком внедряет в Дом моды своего человека – Соню Тимофееву, главной задачей которой является получение информации об отношениях между работниками Домы моды. Вскоре погибает еще одна манекенщица. И одновременно с этим убийством происходит очень дерзкое преступление - ограбление Гознака...-- --Качество :HDTVRip 1080p
Формат: MKV
Видео кодек: H264
Видео: 8736Кбит/сек,1920х1080(16.9),в 29.976кадр/сек,AVC(High@L4)(CABAC/2 Ref Frames)
Аудио Кодек:AC3
Аудио Russian Dolby Digital 5.1:AC3 , 384 Kbps, 48.0 KHz, 6 ch--

Доп. информация:

Звуковая дорожка сделана путем наложения чистого голоса озвучивателей на центральный канал оригинальной дорожки. Качество идентично звуковой дорожке.
--

MediaInfo СЕЗОНА

Общее
Уникальный идентификатор : 174563207295569347130972721829729753445 (0x8353A69B9B8233BCA112166B6AF75965)
Полное имя : E:\К ИНО\Н А Ш Е К И Н О\П А У К\Pauk_2015_E01-E08_H264_DD5.1_N.B_HDTVRip_1080p\Pauk_2015_E01-E02_H264_DD5.1_N.B_HDTVRip_1080p.mkv
Формат : Matroska
Версия формата : Version 4 / Version 2
Размер файла : 6,64 Гбайт
Продолжительность : 1 ч. 42 м.
Режим общего битрейта : Переменный
Общий поток : 9305 Кбит/сек
Название фильма : Pauk_2015_E01-E02_H264_DD5.1_N.B_HDTVRip_1080p
Дата кодирования : UTC 2015-10-21 11:37:54
Программа кодирования : mkvmerge v8.3.0 ('Over the Horizon') 64bit
Библиотека кодирования : libebml v1.3.1 + libmatroska v1.4.2
DURATION : 01:42:12.458000000
NUMBER_OF_FRAMES : 191637
NUMBER_OF_BYTES : 294354432
_STATISTICS_WRITING_APP : mkvmerge v8.3.0 ('Over the Horizon') 64bit
_STATISTICS_WRITING_DATE_UTC : 2015-10-21 11:37:54
_STATISTICS_TAGS : BPS DURATION NUMBER_OF_FRAMES NUMBER_OF_BYTES
Видео
Идентификатор : 1
Формат : AVC
Формат/Информация : Advanced Video Codec
Профиль формата : High@L4
Параметр CABAC формата : Да
Параметр ReFrames формата : 2 кадра
Параметр GOP формата : M=2, N=15
Идентификатор кодека : V_MPEG4/ISO/AVC
Продолжительность : 1 ч. 42 м.
Вид битрейта : Переменный
Битрейт : 8736 Кбит/сек
Максимальный битрейт : 16,0 Мбит/сек
Ширина : 1920 пикселей
Высота : 1080 пикселей
Соотношение сторон : 16:9
Режим частоты кадров : Постоянный
Частота кадров : 29,970 кадров/сек
Цветовое пространство : YUV
Субдискретизация насыщенности : 4:2:0
Битовая глубина : 8 бит
Тип развёртки : Прогрессивная
Бит/(Пиксели*Кадры) : 0.141
Размер потока : 6,24 Гбайт (94%)
Язык : English
Default : Нет
Forced : Нет
Аудио
Идентификатор : 2
Формат : AC-3
Формат/Информация : Audio Coding 3
Расширение режима : CM (complete main)
Параметр Endianness формата : Big
Идентификатор кодека : A_AC3
Продолжительность : 1 ч. 42 м.
Вид битрейта : Постоянный
Битрейт : 384 Кбит/сек
Каналы : 6 каналов
Расположение каналов : Front: L C R, Side: L R, LFE
Частота : 48,0 КГц
Метод сжатия : С потерями
Размер потока : 281 Мбайт (4%)
Default : Нет
Forced : Нет
--

Скриншоты СЕЗОНА

-- -- -- --Релиз от: Nikolai.Baranov -- -- -- --
[Профиль] [ЛС]
Показать сообщения:    

Текущее время: Сегодня 16:54

Часовой пояс: GMT



Вы не можете начинать темы
Вы не можете отвечать на сообщения
Вы не можете редактировать свои сообщения
Вы не можете удалять свои сообщения
Вы не можете голосовать в опросах
Вы не можете прикреплять файлы к сообщениям
Вы не можете скачивать файлы