Паук [01-08 из 08] (2015) WEB-DLRip

 
Автор Сообщение

достали все ®

Пол:

Стаж: 1 год 8 месяцев

Сообщений: 6600



Награды: 12 (Подробнее)

Mega Releaser 2 (Количество: 1) Mega Seeder 2 (Количество: 1) Top Releaser 2 (Количество: 1)
Торрент-статистика

Создавать темы 20-Окт-2015 10:23

[Цитировать]

Информация о фильме
Название: Паук (Гознак)
Год выхода: 2015
Жанр: Детектив, криминал, триллер
Режиссер: Евгений Звездаков
В ролях: Андрей Смоляков, Марина Александрова, Юрий Чурсин, Константин Демидов, Владимир Вольнов, Леся Кудряшова, Вячеслав Митягин, Ярослава Базаева, Александра Ревенко, Владимир Юматов.
О фильме:
На дворе 1967 год, в городе складывается тяжелая обстановка, а все из-за того, что на границах памятника отца революции найдены трупы манекенщиц.
Страна: Россия
Продолжительность: 8 х ~ 00:50:00
Язык: Русский
Файл
Качество: WEB-DLRip
Видео: XviD, ~ 1350 Кбит/с, 704x400
Аудио: MP3, 2 ch, 128 Кбит/с

МедиаИнфо

Общее
Полное имя : Pauk.(08.serij.iz.08).2015.XviD.WEB-DLRip.by.GeneralFilmSerija.01.avi
Формат : AVI
Формат/Информация : Audio Video Interleave
Размер файла : 555 Мбайт
Продолжительность : 52 м.
Общий поток : 1489 Кбит/сек
Программа кодирования : VirtualDubMod 1.5.10.3 | www.virtualdub-fr.org || (build 2550/release)
Библиотека кодирования : VirtualDubMod build 2550/release
Видео
Идентификатор : 0
Формат : MPEG-4 Visual
Профиль формата : Advanced Simple@L5
Параметр BVOP формата : 1
Параметр QPel формата : Нет
Параметр GMC формата : Без точки перехода
Параметр матрицы формата : Выборочная
Идентификатор кодека : XVID
Идентификатор кодека/Подсказка : XviD
Продолжительность : 52 м.
Битрейт : 1352 Кбит/сек
Ширина : 704 пикселя
Высота : 400 пикселей
Соотношение сторон : 16:9
Частота кадров : 25,000 кадров/сек
Цветовое пространство : YUV
Субдискретизация насыщенности : 4:2:0
Битовая глубина : 8 бит
Тип развёртки : Прогрессивная
Метод сжатия : С потерями
Бит/(Пиксели*Кадры) : 0.192
Размер потока : 504 Мбайт (91%)
Библиотека кодирования : XviD 73
Аудио
Идентификатор : 1
Формат : MPEG Audio
Версия формата : Version 1
Профиль формата : Layer 3
Идентификатор кодека : 55
Идентификатор кодека/Подсказка : MP3
Продолжительность : 52 м.
Вид битрейта : Постоянный
Битрейт : 128 Кбит/сек
Каналы : 2 канала
Частота : 48,0 КГц
Метод сжатия : С потерями
Размер потока : 47,7 Мбайт (9%)
Выравнивание : Соединение по промежуткам
Продолжительность промежутка : 40 мс. (1,00 видеокадр)
Время предзагрузки промежутка : 504 мс.
Библиотека кодирования : LAME3.99r
Настройки программы : -m s -V 4 -q 0 -lowpass 17 -b 128
Исходник 1080р:
[Профиль] [ЛС]
Показать сообщения:    

Текущее время: Сегодня 07:12

Часовой пояс: GMT



Вы не можете начинать темы
Вы не можете отвечать на сообщения
Вы не можете редактировать свои сообщения
Вы не можете удалять свои сообщения
Вы не можете голосовать в опросах
Вы не можете прикреплять файлы к сообщениям
Вы не можете скачивать файлы