Паук [01-08 из 08] (2015) WEB-DLRip-AVC от ExKinoRay

 
Автор Сообщение

достали все ®

Пол:

Стаж: 1 год 8 месяцев

Сообщений: 6517



Награды: 12 (Подробнее)

Mega Seeder 1 (Количество: 1) Mega Releaser 2 (Количество: 1) Mega Releaser 1 (Количество: 1)
Торрент-статистика

Создавать темы 20-Окт-2015 10:19

[Цитировать]

Информация о фильме
Оригинальное название: Паук (Гознак)
Год выпуска: 2015
Жанр: Детектив, криминал, триллер
Выпущено: Россия, Красный квадрат, Студия Русский Проект
Режиссер: Евгений Звездаков
В ролях: Андрей Смоляков, Марина Александрова, Владимир Юматов, Мария Андреева, Сергей Угрюмов, Сергей Годин, Марк Богатырёв, Каролина Грушка, Родион Нахапетов, Андрис Лиелайс, Юрий Тарасов, Вадим Андреев, Алексей Бардуков, Юрий Чурсин, Даниэла Стоянович, Александр Дробитько, Константин Демидов (II), Дмитрий Астрахан, Екатерина Волкова, Софья Синицына, Иван Волков, Светлана Мамрешева, Игорь Филиппов, Елизавета Зарубина, Анна Легчилова, Анастасия Шалонько, Анастасия Фурса
О фильме: Следователь Иван Черкасов и его помощница — криминалист Соня Черкасова расследуют два громких дела. Одно из них — самое крупное ограбление в Советском Союзе, которое состоялось в 1977 году. Тогда братья Калачян вынесли из Госбанка Армянской ССР 1,5 млн рублей ($2 млн по тогдашнему курсу). Параллельно следователи ищут маньяка, убивающего девушек в красном. Криминальный триллер «Гознак» является продолжением сериалов «Мосгаз» и «Палач».

Файл
Качество: WEB-DLRip (AVC)
Видео: MPEG-4 AVC, ~ 2225 Кбит/с, 1022х576, 25 кадр/с
Аудио: АС3, 2 ch, 192 Кбит/с
Размер: 6.87 ГБ
Продолжительность: 8 x ~ 00:52:00
Язык: Русский

x264

x264 [info]: frame I:530 Avg QP:14.08 size: 64996
x264 [info]: frame P:19698 Avg QP:16.93 size: 23619
x264 [info]: frame B:57911 Avg QP:18.67 size: 6532
x264 [info]: consecutive B-frames: 2.2% 4.6% 12.6% 40.7% 14.0% 22.6% 2.0% 0.8% 0.2% 0.1% 0.2%
x264 [info]: mb I I16..4: 7.5% 59.1% 33.4%
x264 [info]: mb P I16..4: 1.8% 16.8% 3.9% P16..4: 28.3% 30.1% 9.4% 2.9% 0.3% skip: 6.4%
x264 [info]: mb B I16..4: 0.4% 2.0% 0.3% B16..8: 28.9% 19.7% 3.5% direct: 5.9% skip:39.2% L0:37.6% L1:47.4% BI:15.0%
x264 [info]: 8x8 transform intra:72.8% inter:47.0%
x264 [info]: direct mvs spatial:98.6% temporal:1.4%
x264 [info]: coded y,uvDC,uvAC intra: 74.7% 71.0% 51.9% inter: 18.5% 19.7% 8.1%
x264 [info]: i16 v,h,dc,p: 39% 13% 6% 42%
x264 [info]: i8 v,h,dc,ddl,ddr,vr,hd,vl,hu: 22% 11% 13% 6% 8% 10% 8% 10% 11%
x264 [info]: i4 v,h,dc,ddl,ddr,vr,hd,vl,hu: 32% 12% 12% 5% 8% 9% 7% 7% 6%
x264 [info]: i8c dc,h,v,p: 32% 28% 28% 12%
x264 [info]: Weighted P-Frames: Y:3.3% UV:1.5%
x264 [info]: ref P L0: 54.5% 9.7% 18.5% 4.7% 3.9% 2.6% 2.3% 1.2% 1.2% 1.2% 0.2% 0.0%
x264 [info]: ref B L0: 84.2% 9.5% 2.8% 1.2% 0.8% 0.6% 0.5% 0.2% 0.1%
x264 [info]: ref B L1: 95.0% 5.0%
x264 [info]: kb/s:2247.12

Инфо-файл

Общее
Уникальный идентификатор : 250287763092894940495855199124517677905 (0xBC4BAB75BF4BE8CEA426D9BF18F5EB51)
Полное имя : D:ЗагрузкиPauk.2015.WEB-DLRip.(AVC).ExKinoRayPauk.(E01).2015.x264.WEB-DLRip.(AVC).ExKinoRay.mkv
Формат : Matroska
Версия формата : Version 2
Размер файла : 909 Мбайт
Продолжительность : 52 м.
Общий поток : 2441 Кбит/сек
Название фильма : Паук.2015.(1-я серия).Rip by: ollan
Дата кодирования : UTC 2015-10-19 16:02:34
Программа кодирования : mkvmerge v5.6.0 ('Kenya Kane') built on May 27 2012 16:44:04
Библиотека кодирования : libebml v1.2.3 + libmatroska v1.3.0
Видео
Идентификатор : 1
Формат : AVC
Формат/Информация : Advanced Video Codec
Профиль формата : High@L4.1
Параметр CABAC формата : Да
Параметр ReFrames формата : 10 кадров
Идентификатор кодека : V_MPEG4/ISO/AVC
Продолжительность : 52 м.
Битрейт : 2248 Кбит/сек
Ширина : 1022 пикселя
Высота : 576 пикселей
Соотношение сторон : 16:9
Режим частоты кадров : Постоянный
Частота кадров : 25,000 кадров/сек
Цветовое пространство : YUV
Субдискретизация насыщенности : 4:2:0
Битовая глубина : 8 бит
Тип развёртки : Прогрессивная
Бит/(Пиксели*Кадры) : 0.153
Размер потока : 820 Мбайт (90%)
Библиотека кодирования : x264 core 125 r2200 999b753
Настройки программы : cabac=1 / ref=10 / deblock=1:-3:-3 / analyse=0x3:0x133 / me=umh / subme=11 / psy=1 / psy_rd=1.00:0.10 / mixed_ref=1 / me_range=32 / chroma_me=1 / trellis=2 / 8x8dct=1 / cqm=0 / deadzone=21,11 / fast_pskip=0 / chroma_qp_offset=-3 / threads=12 / lookahead_threads=2 / sliced_threads=0 / nr=0 / decimate=0 / interlaced=0 / bluray_compat=0 / constrained_intra=0 / bframes=10 / b_pyramid=2 / b_adapt=2 / b_bias=0 / direct=3 / weightb=1 / open_gop=0 / weightp=2 / keyint=250 / keyint_min=25 / scenecut=40 / intra_refresh=0 / rc=2pass / mbtree=0 / bitrate=2248 / ratetol=1.0 / qcomp=0.60 / qpmin=0 / qpmax=69 / qpstep=4 / cplxblur=20.0 / qblur=0.5 / ip_ratio=1.40 / pb_ratio=1.30 / aq=1:1.00
Язык : Russian
Default : Да
Forced : Нет
Аудио
Идентификатор : 2
Формат : AC-3
Формат/Информация : Audio Coding 3
Расширение режима : CM (complete main)
Параметр Endianness формата : Big
Идентификатор кодека : A_AC3
Продолжительность : 52 м.
Вид битрейта : Постоянный
Битрейт : 192 Кбит/сек
Каналы : 2 канала
Расположение каналов : Front: L R
Частота : 48,0 КГц
Битовая глубина : 16 бит
Метод сжатия : С потерями
Размер потока : 71,5 Мбайт (8%)
Язык : Russian
Default : Да
Forced : Нет

Скриншоты



Релиз от: Rip by:
[Профиль] [ЛС]
Показать сообщения:    

Текущее время: Сегодня 07:05

Часовой пояс: GMT



Вы не можете начинать темы
Вы не можете отвечать на сообщения
Вы не можете редактировать свои сообщения
Вы не можете удалять свои сообщения
Вы не можете голосовать в опросах
Вы не можете прикреплять файлы к сообщениям
Вы не можете скачивать файлы