Патруль времени / Predestination (2014) BDRemux 1080p | Лицензия

 
Автор Сообщение

sergej644 ®

Пол:

Стаж: 4 года 11 месяцев

Сообщений: 6038

Откуда: Soviet Union



Награды: Нет

Торрент-статистика

Создавать темы 17-Фев-2015 19:06

[Цитировать]

Информация о фильме
Название: Патруль времени
Оригинальное название: Predestination
Год выпуска: 2013
Жанр: Фантастика, триллер, экранизация
Выпущено: Австралия, Blacklab Entertainment, Screen Australia, Screen Queensland, Wolfhound Pictures
Режиссер: Майкл Спириг, Питер Спириг
В ролях: Итэн Хоук, Сара Снук, Ноа Тейлор, Элиз Джэнсен, Фрея Стэффорд, Кристофер Кирби, Кейт Вульф, Мадлен Уэст, Люсинда Армстронг Холл, Алисия Павлис
О фильме: Будущее. Ученые создали машину времени, и с этим изобретением мир вошел в новый виток цивилизации. Благодаря изобретению появилась возможность исправлять ошибки прошлого, чтобы сделать настоящее лучше. Так же машина дала возможность предотвращать преступления до их реализации. Для этой цели были отобраны лучшие полицейские. Главный герой — полицейский времени, который уже успел предотвратить огромное количество преступлений благодаря путешествиям сквозь время. Однако все его заслуги меркнут, потому что он неспособен остановить угрозу, намеревающуюся уничтожить Нью-Йорк.

Файл
Качество: Blu-Ray Remux (1080p)
Видео: MPEG-4 AVC, 24891 Кбит/с, 1920x1080, 23.976 кадр/с
Аудио: Русский (AC3, 6 ch, 640 Кбит/с), (DTS, 6 ch, 1509 Кбит/c), английский (DTS-HD MA, 6 ch, 2112 Кбит/c)
Размер: 19.92 ГБ
Продолжительность: 01:37:49
Перевод: Дублированный
Субтитры: Английские
Сохранены оригинальные чаптеры как на Blu-Ray.
-------------------------------------------------------------
Озвучивание - Дублированное (Лицензия)

Инфо-файл

Общее
Уникальный идентификатор : 171329381953595057765838429818051405423 (0x80E4D6B56C0267BC9EE75F981480A66F)
Полное имя : D:ЗагрузкиPredestination.2014.BDRemux.(1080p).ExKinoRay.mkv
Формат : Matroska
Версия формата : Version 2
Размер файла : 19,9 Гбайт
Продолжительность : 1 ч. 37 м.
Режим общего битрейта : Переменный
Общий поток : 29,2 Мбит/сек
Название фильма : Патруль времени.2014.Сборка: ollan
Дата кодирования : UTC 2015-02-13 13:17:46
Программа кодирования : mkvmerge v5.6.0 ('Kenya Kane') built on May 27 2012 16:44:04
Библиотека кодирования : libebml v1.2.3 + libmatroska v1.3.0
Видео
Идентификатор : 1
Формат : AVC
Формат/Информация : Advanced Video Codec
Профиль формата : High@L4.1
Параметр CABAC формата : Да
Параметр ReFrames формата : 2 кадра
Параметр GOP формата : M=1, N=10
Идентификатор кодека : V_MPEG4/ISO/AVC
Продолжительность : 1 ч. 37 м.
Вид битрейта : Переменный
Ширина : 1920 пикселей
Высота : 1080 пикселей
Соотношение сторон : 16:9
Режим частоты кадров : Постоянный
Частота кадров : 23,976 кадра/сек
Цветовое пространство : YUV
Субдискретизация насыщенности : 4:2:0
Битовая глубина : 8 бит
Тип развёртки : Прогрессивная
Default : Да
Forced : Нет
Аудио #1
Идентификатор : 2
Формат : AC-3
Формат/Информация : Audio Coding 3
Расширение режима : CM (complete main)
Параметр Endianness формата : Big
Идентификатор кодека : A_AC3
Продолжительность : 1 ч. 37 м.
Вид битрейта : Постоянный
Битрейт : 640 Кбит/сек
Каналы : 6 каналов
Расположение каналов : Front: L C R, Side: L R, LFE
Частота : 48,0 КГц
Битовая глубина : 16 бит
Метод сжатия : С потерями
Размер потока : 448 Мбайт (2%)
Заголовок : Дублированный (Лицензия)
Язык : Russian
Default : Да
Forced : Нет
Аудио #2
Идентификатор : 3
Формат : DTS
Формат/Информация : Digital Theater Systems
Режим : 16
Параметр Endianness формата : Big
Идентификатор кодека : A_DTS
Продолжительность : 1 ч. 37 м.
Вид битрейта : Постоянный
Битрейт : 1509 Кбит/сек
Каналы : 6 каналов
Расположение каналов : Front: L C R, Side: L R, LFE
Частота : 48,0 КГц
Битовая глубина : 24 бит
Метод сжатия : С потерями
Размер потока : 1,03 Гбайт (5%)
Заголовок : Дублированный (Лицензия)
Язык : Russian
Default : Нет
Forced : Нет
Аудио #3
Идентификатор : 4
Формат : DTS
Формат/Информация : Digital Theater Systems
Профиль формата : MA / Core
Режим : 16
Параметр Endianness формата : Big
Идентификатор кодека : A_DTS
Продолжительность : 1 ч. 37 м.
Вид битрейта : Переменный
Битрейт : Неизвестно / 1509 Кбит/сек
Каналы : 6 каналов
Расположение каналов : Front: L C R, Side: L R, LFE
Частота : 48,0 КГц
Битовая глубина : 16 бит
Метод сжатия : Без потерь / Lossy
Язык : English
Default : Нет
Forced : Нет
Текст
Идентификатор : 5
Формат : UTF-8
Идентификатор кодека : S_TEXT/UTF8
Идентификатор кодека/Информация : UTF-8 Plain Text
Язык : English
Default : Нет
Forced : Нет
Меню
00:00:00.000 : en:Chapter 1
00:06:04.655 : en:Chapter 2
00:08:31.677 : en:Chapter 3
00:15:55.537 : en:Chapter 4
00:22:33.602 : en:Chapter 5
00:28:53.273 : en:Chapter 6
00:34:25.688 : en:Chapter 7
00:41:07.631 : en:Chapter 8
00:47:33.058 : en:Chapter 9
00:52:05.372 : en:Chapter 10
00:58:46.356 : en:Chapter 11
01:05:18.831 : en:Chapter 12
01:12:06.655 : en:Chapter 13
01:17:43.116 : en:Chapter 14
01:22:50.382 : en:Chapter 15
01:29:37.955 : en:Chapter 16

Скриншоты

[Профиль] [ЛС]
Кто просматривает тему:

Форум Тема Автор Размер
Зарубежные сериалы Ночной дозор / Дневник ночного дозора / Ночной патруль / Yakyung-ggoonilji / The Night Watchman /The Night Watchman's Journal [01-24 из 24] (2014) HDTVRip | L1 Белочка 14.87 GB
Фильмы (HD Rips | 720p, 1080p) Патруль времени / Predestination (2013) BDRip 1080p от MediaClub | BaiBaKo, A sergej644 7.6 GB
Фильмы (HD Rips | 720p, 1080p) Патруль времени / Predestination (2014) BDRip 720p | Лицензия sergej644 4.5 GB
Фильмы (HD Rips | 720p, 1080p) Патруль времени / Predestination (2014) BDRip 720p от Hot-Film | D, A sergej644 3.14 GB
Фильмы (HD DVD, Blu-ray и BDRemux) Патруль времени / Predestination (2014) Blu-Ray | Rus Transfer | Лицензия BOSS 18.22 GB
Фильмы (HD Rips | 720p, 1080p) Патруль времени / Предопределение / Predestination (2014) BDRip 720p | Есарев sergej644 6.42 GB
Фильмы 2014 года Патруль времени / Предопределение / Predestination (2014) HDRip от ExKinoRay | Есарев sergej644 1.45 GB
Фильмы 2014 года Патруль времени / Предопределение / Predestination (Майкл Спириг, Питер Спириг) [2014 г., фантастика, триллер, BDRip] BOSS 1.47 GB
Показать сообщения:    

Текущее время: Сегодня 06:28

Часовой пояс: GMT



Вы не можете начинать темы
Вы не можете отвечать на сообщения
Вы не можете редактировать свои сообщения
Вы не можете удалять свои сообщения
Вы не можете голосовать в опросах
Вы не можете прикреплять файлы к сообщениям
Вы не можете скачивать файлы