Патруль времени / Predestination (2014) BDRip 720p от Hot-Film | D, A

 
Автор Сообщение

sergej644 ®

Пол:

Стаж: 5 лет 9 месяцев

Сообщений: 6149

Откуда: Soviet Union



Награды: 9 (Подробнее)

Mega Seeder 5 (Количество: 1) Mega Seeder 3 (Количество: 1) Top Seeder 4 (Количество: 1)
Торрент-статистика

Создавать темы 13-Фев-2015 22:04

[Цитировать]

Информация о фильме
Название: Патруль времени
Оригинальное название: Predestination
Год выхода: 2014
Жанр: фантастика, боевик, триллер, драма, детектив
Режиссер: Майкл Спириг, Питер Спириг
В ролях: Итан Хоук, Сара Снук, Кристофер Кирби, Кристофер Соммерс, Куни Хасимото, Сара Эль-Яафи, Пол Модер, Грант Пиро, Кристофер Бануорс
О ФИЛЬМЕ
Будущее. Учёные создали машину времени, и с этим изобретением мир вышел на новый виток цивилизации. Благодаря изобретению появилась возможность исправлять ошибки прошлого, чтобы сделать настоящее лучше. Также машина дала возможность предотвращать преступления до их реализации. Для этой цели были отобраны лучшие полицейские.
Главный герой — полицейский времени, который уже успел предотвратить огромное количество преступлений благодаря путешествиям сквозь время. Однако все его заслуги меркнут, потому что он неспособен остановить угрозу, намеревающуюся уничтожить Нью-Йорк.

Страна: Австралия
Производство: Screen Australia, Screen Queensland, Wolfhound Pictures
Продолжительность: 01:37:49
Перевод: Дублированный (профессиональный) [Лицензия]; Авторский (одноголосый) [Дмитрий Есарев (цензура / без цензуры)]
Файл
Качество: BDRip 720p
Видео: MPEG-4 AVC, 2031 Кбит/с, 1280х534
Аудио: Русский, английский (AC3, 6 ch, 640 Кбит/с)
Субтитры: Русские, английские
Дополнительно: Сохранены оригинальные чаптеры как на Blu-Ray

Скриншоты


MI

x264 [info]: frame I:1561 Avg QP:12.25 size: 80433
x264 [info]: frame P:33214 Avg QP:14.68 size: 22845
x264 [info]: frame B:105932 Avg QP:17.07 size: 5714
-------------------------
General
Unique ID : 213347472741744174455671301281108497091 (0xA0813A879424522AADE8F06CA13892C3)
Complete name : H:Predestination.2014.BD.720.Hot-Film.mkv
Format : Matroska
Format version : Version 2
File size : 3.14 GiB
Duration : 01:37:49
Overall bit rate : 4 594 Kbps
Encoded date : UTC 2015-02-13 18:08:02
Writing application : mkvmerge v5.8.0 ('No Sleep / Pillow') built on Sep 2 2012 15:37:04
Writing library : libebml v1.2.3 + libmatroska v1.3.0
Attachment : Yes
Video
ID : 1
Format : AVC
Format/Info : Advanced Video Codec
Format profile : High@L4.1
Format settings, CABAC : Yes
Format settings, ReFrames : 9 frames
Codec ID : V_MPEG4/ISO/AVC
Duration : 1h 37mn
Bit rate : 2 031 Kbps
Width : 1 280 pixels
Height : 534 pixels
Display aspect ratio : 2.40:1
Frame rate mode : Constant
Frame rate : 23.976 fps
Color space : YUV
Chroma subsampling : 4:2:0
Bit depth : 8 bits
Scan type : Progressive
Bits/(Pixel*Frame) : 0.124
Stream size : 1.33 GiB (42%)
Writing library : x264 core 142 r2431 ac76440
Encoding settings : cabac=1 / ref=9 / deblock=1:-3:-3 / analyse=0x3:0x133 / me=umh / subme=11 / psy=1 / psy_rd=1.00:0.10 / mixed_ref=1 / me_range=32 / chroma_me=1 / trellis=2 / 8x8dct=1 / cqm=0 / deadzone=21,11 / fast_pskip=0 / chroma_qp_offset=-3 / threads=12 / lookahead_threads=2 / sliced_threads=0 / nr=0 / decimate=0 / interlaced=0 / bluray_compat=0 / constrained_intra=0 / bframes=7 / b_pyramid=2 / b_adapt=2 / b_bias=0 / direct=3 / weightb=1 / open_gop=0 / weightp=2 / keyint=240 / keyint_min=23 / scenecut=40 / intra_refresh=0 / rc_lookahead=40 / rc=2pass / mbtree=0 / bitrate=2031 / ratetol=1.0 / qcomp=0.60 / qpmin=0 / qpmax=69 / qpstep=4 / cplxblur=20.0 / qblur=0.5 / vbv_maxrate=50000 / vbv_bufsize=62500 / nal_hrd=none / filler=0 / ip_ratio=1.40 / pb_ratio=1.30 / aq=1:0.80
Language : English
Default : Yes
Forced : No
Audio #1
ID : 2
Format : AC-3
Format/Info : Audio Coding 3
Mode extension : CM (complete main)
Format settings, Endianness : Big
Codec ID : A_AC3
Duration : 1h 37mn
Bit rate mode : Constant
Bit rate : 640 Kbps
Channel(s) : 6 channels
Channel positions : Front: L C R, Side: L R, LFE
Sampling rate : 48.0 KHz
Bit depth : 16 bits
Compression mode : Lossy
Stream size : 448 MiB (14%)
Title : DUB
Language : Russian
Default : Yes
Forced : No
Audio #2
ID : 3
Format : AC-3
Format/Info : Audio Coding 3
Mode extension : CM (complete main)
Format settings, Endianness : Big
Codec ID : A_AC3
Duration : 1h 37mn
Bit rate mode : Constant
Bit rate : 640 Kbps
Channel(s) : 6 channels
Channel positions : Front: L C R, Side: L R, LFE
Sampling rate : 48.0 KHz
Bit depth : 16 bits
Compression mode : Lossy
Stream size : 448 MiB (14%)
Title : AVO цензура
Language : Russian
Default : No
Forced : No
Audio #3
ID : 4
Format : AC-3
Format/Info : Audio Coding 3
Mode extension : CM (complete main)
Format settings, Endianness : Big
Codec ID : A_AC3
Duration : 1h 37mn
Bit rate mode : Constant
Bit rate : 640 Kbps
Channel(s) : 6 channels
Channel positions : Front: L C R, Side: L R, LFE
Sampling rate : 48.0 KHz
Bit depth : 16 bits
Compression mode : Lossy
Stream size : 448 MiB (14%)
Title : AVO без цензуры
Language : Russian
Default : No
Forced : No
Audio #4
ID : 5
Format : AC-3
Format/Info : Audio Coding 3
Mode extension : CM (complete main)
Format settings, Endianness : Big
Codec ID : A_AC3
Duration : 1h 37mn
Bit rate mode : Constant
Bit rate : 640 Kbps
Channel(s) : 6 channels
Channel positions : Front: L C R, Side: L R, LFE
Sampling rate : 48.0 KHz
Bit depth : 16 bits
Compression mode : Lossy
Stream size : 448 MiB (14%)
Title : Original
Language : English
Default : No
Forced : No
Text #1
ID : 6
Format : UTF-8
Codec ID : S_TEXT/UTF8
Codec ID/Info : UTF-8 Plain Text
Title : Forced
Language : Russian
Default : Yes
Forced : Yes
Text #2
ID : 7
Format : UTF-8
Codec ID : S_TEXT/UTF8
Codec ID/Info : UTF-8 Plain Text
Title : Full
Language : Russian
Default : No
Forced : No
Text #3
ID : 8
Format : UTF-8
Codec ID : S_TEXT/UTF8
Codec ID/Info : UTF-8 Plain Text
Title : SDH
Language : Russian
Default : No
Forced : No
Text #4
ID : 9
Format : UTF-8
Codec ID : S_TEXT/UTF8
Codec ID/Info : UTF-8 Plain Text
Title : Full
Language : English
Default : No
Forced : No
Text #5
ID : 10
Format : UTF-8
Codec ID : S_TEXT/UTF8
Codec ID/Info : UTF-8 Plain Text
Title : SDH
Language : English
Default : No
Forced : No
Menu
00:00:00.000 : :Chapter 01
00:06:04.656 : :Chapter 02
00:08:31.678 : :Chapter 03
00:15:55.538 : :Chapter 04
00:22:33.602 : :Chapter 05
00:28:53.273 : :Chapter 06
00:34:25.689 : :Chapter 07
00:41:07.632 : :Chapter 08
00:47:33.059 : :Chapter 09
00:52:05.372 : :Chapter 10
00:58:46.356 : :Chapter 11
01:05:18.832 : :Chapter 12
01:12:06.656 : :Chapter 13
01:17:43.117 : :Chapter 14
01:22:50.382 : :Chapter 15
01:29:37.956 : :Chapter 16
[Профиль] [ЛС]
Показать сообщения:    

Текущее время: Сегодня 16:46

Часовой пояс: GMT



Вы не можете начинать темы
Вы не можете отвечать на сообщения
Вы не можете редактировать свои сообщения
Вы не можете удалять свои сообщения
Вы не можете голосовать в опросах
Вы не можете прикреплять файлы к сообщениям
Вы не можете скачивать файлы