Патруль времени / Predestination (2014) BDRip 720p | Лицензия

 
Автор Сообщение

sergej644 ®

Пол:

Стаж: 4 года 11 месяцев

Сообщений: 6046

Откуда: Soviet Union



Награды: Нет

Торрент-статистика

Создавать темы 13-Фев-2015 18:21

[Цитировать]

Информация о фильме
Название: Патруль времени
Оригинальное название: Predestination
Год выпуска: 2013
Жанр: Фантастика, триллер, экранизация
Выпущено: Австралия, Blacklab Entertainment, Screen Australia, Screen Queensland, Wolfhound Pictures
Режиссер: Майкл Спириг, Питер Спириг
В ролях: Итэн Хоук, Сара Снук, Ноа Тейлор, Элиз Джэнсен, Фрея Стэффорд, Кристофер Кирби, Кейт Вульф, Мадлен Уэст, Люсинда Армстронг Холл, Алисия Павлис
О фильме: Специальный агент постоянно находится между прошлым и будущим, чтобы обеспечить себе карьеру законника длиною в вечность. В своем последнем задании ему предстоит завербовать в прошлом самого себя и, наконец, задержать преступника, который вновь и вновь ускользает от него в другое время, находясь всегда на шаг впереди него.

Файл
Качество: BDRip (720p)
Видео: MPEG-4 AVC, 4863 Кбит/с, 1280x534
Аудио: Русский, английский (AC3, 6 ch, 640 Кбит/с - ЛИЦЕНЗИЯ), русский (AC3, 6 ch, 448 Кбит/с - Авторский (одноголосый закадровый) [Д.Есарев])
Размер: 4.5 ГБ
Продолжительность: 01:37:49
Перевод: Дублированный [ЛИЦЕНЗИЯ], авторский

MI

Общее
Уникальный идентификатор : 176782783695511319704314888392059508804 (0x84FF202C60627268B7C103A3B3F9D844)
Полное имя : C:P4tr00l.Vremen1.2014.D.BDRip.720.mkv
Формат : Matroska
Версия формата : Version 4 / Version 2
Размер файла : 4,50 Гбайт
Продолжительность : 1 ч. 37 м.
Общий поток : 6590 Кбит/сек
Название фильма : BRH@BlueBird
Дата кодирования : UTC 2015-02-13 12:30:42
Программа кодирования : mkvmerge v7.3.0 ('Nouages') 64bit built on Oct 22 2014 18:53:34
Библиотека кодирования : libebml v1.3.0 + libmatroska v1.4.1
_STATISTICS_WRITING_APP : mkvmerge v7.3.0 ('Nouages') 64bit built on Oct 22 2014 18:53:34
_STATISTICS_WRITING_DATE_UTC : 2015-02-13 12:30:42
_STATISTICS_TAGS : BPS DURATION NUMBER_OF_FRAMES NUMBER_OF_BYTES
DURATION : 01:37:48.832000000
NUMBER_OF_FRAMES : 183401
NUMBER_OF_BYTES : 328654592
Видео
Идентификатор : 1
Формат : AVC
Формат/Информация : Advanced Video Codec
Профиль формата : High@L4.1
Параметр CABAC формата : Да
Параметр ReFrames формата : 10 кадров
Идентификатор кодека : V_MPEG4/ISO/AVC
Продолжительность : 1 ч. 37 м.
Битрейт : 4863 Кбит/сек
Ширина : 1280 пикселей
Высота : 534 пикселя
Соотношение сторон : 2,40:1
Режим частоты кадров : Постоянный
Частота кадров : 23,976 кадра/сек
Цветовое пространство : YUV
Субдискретизация насыщенности : 4:2:0
Битовая глубина : 8 бит
Тип развёртки : Прогрессивная
Бит/(Пиксели*Кадры) : 0.297
Размер потока : 3,23 Гбайт (72%)
Библиотека кодирования : x264 core 142 r2431 ac76440
Настройки программы : cabac=1 / ref=10 / deblock=1:-3:-3 / analyse=0x3:0x113 / me=umh / subme=10 / psy=1 / psy_rd=1.00:0.05 / mixed_ref=1 / me_range=32 / chroma_me=1 / trellis=2 / 8x8dct=1 / cqm=0 / deadzone=21,11 / fast_pskip=0 / chroma_qp_offset=-2 / threads=18 / lookahead_threads=1 / sliced_threads=0 / nr=0 / decimate=1 / interlaced=0 / bluray_compat=0 / constrained_intra=0 / bframes=4 / b_pyramid=2 / b_adapt=2 / b_bias=0 / direct=3 / weightb=1 / open_gop=0 / weightp=2 / keyint=250 / keyint_min=23 / scenecut=40 / intra_refresh=0 / rc=2pass / mbtree=0 / bitrate=4863 / ratetol=1.0 / qcomp=0.70 / qpmin=0 / qpmax=69 / qpstep=4 / cplxblur=20.0 / qblur=0.5 / ip_ratio=1.40 / pb_ratio=1.30 / aq=2:1.00
Язык : English
Default : Да
Forced : Нет
_STATISTICS_WRITING_APP : mkvmerge v7.3.0 ('Nouages') 64bit built on Oct 22 2014 18:53:34
_STATISTICS_WRITING_DATE_UTC : 2015-02-13 12:30:42
_STATISTICS_TAGS : BPS DURATION NUMBER_OF_FRAMES NUMBER_OF_BYTES
DURATION : 01:37:48.900000000
NUMBER_OF_FRAMES : 140713
NUMBER_OF_BYTES : 3565111844
Аудио #1
Идентификатор : 2
Формат : AC-3
Формат/Информация : Audio Coding 3
Расширение режима : CM (complete main)
Параметр Endianness формата : Big
Идентификатор кодека : A_AC3
Продолжительность : 1 ч. 37 м.
Вид битрейта : Постоянный
Битрейт : 640 Кбит/сек
Каналы : 6 каналов
Расположение каналов : Front: L C R, Side: L R, LFE
Частота : 48,0 КГц
Битовая глубина : 16 бит
Метод сжатия : С потерями
Размер потока : 448 Мбайт (10%)
Язык : Russian
Default : Да
Forced : Нет
Аудио #2
Идентификатор : 3
Формат : AC-3
Формат/Информация : Audio Coding 3
Расширение режима : CM (complete main)
Параметр Endianness формата : Big
Идентификатор кодека : A_AC3
Продолжительность : 1 ч. 37 м.
Вид битрейта : Постоянный
Битрейт : 448 Кбит/сек
Каналы : 6 каналов
Расположение каналов : Front: L C R, Side: L R, LFE
Частота : 48,0 КГц
Битовая глубина : 16 бит
Метод сжатия : С потерями
Размер потока : 313 Мбайт (7%)
Язык : Russian
Default : Нет
Forced : Нет
Аудио #3
Идентификатор : 4
Формат : AC-3
Формат/Информация : Audio Coding 3
Расширение режима : CM (complete main)
Параметр Endianness формата : Big
Идентификатор кодека : A_AC3
Продолжительность : 1 ч. 37 м.
Вид битрейта : Постоянный
Битрейт : 640 Кбит/сек
Каналы : 6 каналов
Расположение каналов : Front: L C R, Side: L R, LFE
Частота : 48,0 КГц
Битовая глубина : 16 бит
Метод сжатия : С потерями
Размер потока : 448 Мбайт (10%)
Заголовок : Esarev
Язык : English
Default : Нет
Forced : Нет
Текст #1
Идентификатор : 5
Формат : UTF-8
Идентификатор кодека : S_TEXT/UTF8
Идентификатор кодека/Информация : UTF-8 Plain Text
Заголовок : Форсированные
Язык : Russian
Default : Да
Forced : Нет
Текст #2
Идентификатор : 6
Формат : UTF-8
Идентификатор кодека : S_TEXT/UTF8
Идентификатор кодека/Информация : UTF-8 Plain Text
Язык : Russian
Default : Нет
Forced : Нет
Текст #3
Идентификатор : 7
Формат : UTF-8
Идентификатор кодека : S_TEXT/UTF8
Идентификатор кодека/Информация : UTF-8 Plain Text
Заголовок : SDH
Язык : Russian
Default : Нет
Forced : Нет
Текст #4
Идентификатор : 8
Формат : UTF-8
Идентификатор кодека : S_TEXT/UTF8
Идентификатор кодека/Информация : UTF-8 Plain Text
Язык : English
Default : Нет
Forced : Нет
Текст #5
Идентификатор : 9
Формат : UTF-8
Идентификатор кодека : S_TEXT/UTF8
Идентификатор кодека/Информация : UTF-8 Plain Text
Заголовок : SDH
Язык : English
Default : Нет
Forced : Нет
Меню
00:00:00.000 : en:Main Titles: Gainsville, GA 1863
00:07:51.053 : en:There's Never Enough Time..
00:13:25.221 : en:Ruin in the Rain
00:15:39.271 : en:Wall Street October 30, 1929
00:22:49.534 : en:Justice in Time
00:24:07.863 : en:Trouble with the T.E.C.
00:34:07.086 : en:Killers for Company
00:39:00.588 : en:A Blast to the Past
00:43:38.240 : en:Back to 1994
00:47:14.790 : en:McComb's Future
01:01:00.156 : en:The Only Way Back
01:07:07.398 : en:The Fugitive From the Future
01:14:08.902 : en:A Fight for the Future
01:26:11.416 : en:McComb Gets Tougher
01:29:40.083 : en:The New Future
01:33:24.056 : en:"Time Won't Let Me"
01:37:47.862 : en:

Скриншоты



[Профиль] [ЛС]
Кто просматривает тему:

Форум Тема Автор Размер
Зарубежные сериалы Ночной дозор / Дневник ночного дозора / Ночной патруль / Yakyung-ggoonilji / The Night Watchman /The Night Watchman's Journal [01-24 из 24] (2014) HDTVRip | L1 Белочка 14.87 GB
Фильмы (HD Rips | 720p, 1080p) Патруль времени / Predestination (2013) BDRip 1080p от MediaClub | BaiBaKo, A sergej644 7.6 GB
Фильмы (HD Rips | 720p, 1080p) Патруль времени / Predestination (2014) BDRemux 1080p | Лицензия sergej644 19.92 GB
Фильмы (HD Rips | 720p, 1080p) Патруль времени / Predestination (2014) BDRip 720p от Hot-Film | D, A sergej644 3.14 GB
Фильмы (HD DVD, Blu-ray и BDRemux) Патруль времени / Predestination (2014) Blu-Ray | Rus Transfer | Лицензия BOSS 18.22 GB
Фильмы (HD Rips | 720p, 1080p) Патруль времени / Предопределение / Predestination (2014) BDRip 720p | Есарев sergej644 6.42 GB
Фильмы 2014 года Патруль времени / Предопределение / Predestination (2014) HDRip от ExKinoRay | Есарев sergej644 1.45 GB
Фильмы 2014 года Патруль времени / Предопределение / Predestination (Майкл Спириг, Питер Спириг) [2014 г., фантастика, триллер, BDRip] BOSS 1.47 GB
Показать сообщения:    

Текущее время: Сегодня 13:01

Часовой пояс: GMT



Вы не можете начинать темы
Вы не можете отвечать на сообщения
Вы не можете редактировать свои сообщения
Вы не можете удалять свои сообщения
Вы не можете голосовать в опросах
Вы не можете прикреплять файлы к сообщениям
Вы не можете скачивать файлы