Патруль времени / Predestination (2013) BDRip 1080p от MediaClub | BaiBaKo, A

 
Автор Сообщение

sergej644 ®

Пол:

Стаж: 4 года 11 месяцев

Сообщений: 6045

Откуда: Soviet Union



Награды: Нет

Торрент-статистика

Создавать темы 13-Дек-2014 20:41

[Цитировать]

Информация о фильме
Название: Патруль времени
Оригинальное название: Predestination
Год выхода: 2013
Жанр: Фантастика, триллер
Режиссер: Майкл Спириг, Питер Спириг
В ролях: Итэн Хоук, Сара Снук, Ноа Тейлор, Элиз Джэнсен, Фрея Стэффорд, Кристофер Кирби, Кейт Вульф, Алексис Фернандес, Люсинда Армстронг Холл, Алисия Павлис
О фильме:
Будущее. Ученые создали машину времени, и с этим изобретением мир вошел в новый виток цивилизации. Благодаря изобретению появилась возможность исправлять ошибки прошлого, чтобы сделать настоящее лучше. Так же машина дала возможность предотвращать преступления до их реализации. Для этой цели были отобраны лучшие полицейские. Главный герой — полицейский времени, который уже успел предотвратить огромное количество преступлений благодаря путешествиям сквозь время. Однако все его заслуги меркнут, потому что он неспособен остановить угрозу, намеревающуюся уничтожить Нью-Йорк.

Страна: Австралия
Студия: Blacklab Entertainment, Screen Australia, Screen Queensland, Wolfhound Pictures
Продолжительность: 01:37:48
Перевод: Авторский
Кодек: x264
Качество: BDRip 1080p
Видео: MPEG-4 AVC, 8500 Кбит/сек, 1920x800, 23.976 кадр/с
Звук:
Аудио #1: Русский (AC3, 6 ch, 640 Кбит/с) / Профессиональный многоголосый (BaiBaKo)
Аудио #2: Русский (AC3, 6 ch, 640 Кбит/с) / Авторский одноголосый (Дмитрий Есарев - без цензуры)
Аудио #3: Русский (AC3, 6 ch, 640 Кбит/с) / Авторский одноголосый (Дмитрий Есарев - цензурный)
Аудио #4: Английский (AC3, 6 ch, 640 Кбит/с)
Субтитры: Английские
Семпл

MI

x264 [info]: frame I:1253 Avg QP:15.36 size:225578
x264 [info]: frame P:30795 Avg QP:17.04 size: 86423
x264 [info]: frame B:108664 Avg QP:18.75 size: 30672
---------------------------------------------------------------------------
General
Unique ID : 217553905037932444190349886230867976619 (0xA3AB5BA766C42C33999530629C67A1AB)
Complete name : Predestination.2014.BDRip.1080p.MediaClub.mkv
Format : Matroska
Format version : Version 4 / Version 2
File size : 7.60 GiB
Duration : 1h 38mn
Overall bit rate : 11.1 Mbps
Movie name : release MediaClub - MINION
Encoded date : UTC 2014-12-13 17:59:41
Writing application : mkvmerge v7.3.0 ('Nouages') 64bit built on Oct 22 2014 18:53:34
Writing library : libebml v1.3.0 + libmatroska v1.4.1
DURATION : 01:38:18.912000000
NUMBER_OF_FRAMES : 184341
NUMBER_OF_BYTES : 471912960
_STATISTICS_WRITING_APP : mkvmerge v7.3.0 ('Nouages') 64bit built on Oct 22 2014 18:53:34
_STATISTICS_WRITING_DATE_UTC : 2014-12-13 17:59:41
_STATISTICS_TAGS : BPS DURATION NUMBER_OF_FRAMES NUMBER_OF_BYTES
Video
ID : 1
Format : AVC
Format/Info : Advanced Video Codec
Format profile : High@L4.1
Format settings, CABAC : Yes
Format settings, ReFrames : 5 frames
Codec ID : V_MPEG4/ISO/AVC
Duration : 1h 38mn
Bit rate : 8 500 Kbps
Width : 1 920 pixels
Height : 800 pixels
Display aspect ratio : 2.40:1
Frame rate mode : Constant
Frame rate : 23.976 fps
Color space : YUV
Chroma subsampling : 4:2:0
Bit depth : 8 bits
Scan type : Progressive
Bits/(Pixel*Frame) : 0.231
Stream size : 5.69 GiB (75%)
Title : Predestination (2013) BDRip 1080p [MediaClub - MINION]
Writing library : x264 core 142 r2431 ac76440
Encoding settings : cabac=1 / ref=5 / deblock=1:-3:-3 / analyse=0x3:0x133 / me=esa / subme=11 / psy=1 / psy_rd=1.00:0.10 / mixed_ref=1 / me_range=48 / chroma_me=1 / trellis=2 / 8x8dct=1 / cqm=0 / deadzone=21,11 / fast_pskip=0 / chroma_qp_offset=-3 / threads=6 / lookahead_threads=1 / sliced_threads=0 / nr=0 / decimate=0 / interlaced=0 / bluray_compat=0 / constrained_intra=0 / bframes=10 / b_pyramid=2 / b_adapt=2 / b_bias=0 / direct=3 / weightb=1 / open_gop=0 / weightp=2 / keyint=240 / keyint_min=23 / scenecut=40 / intra_refresh=0 / rc=2pass / mbtree=0 / bitrate=8500 / ratetol=1.0 / qcomp=0.60 / qpmin=10 / qpmax=51 / qpstep=4 / cplxblur=20.0 / qblur=0.5 / ip_ratio=1.40 / pb_ratio=1.30 / aq=1:1.00
Language : English
Default : Yes
Forced : No
DURATION : 01:37:48.863000000
NUMBER_OF_FRAMES : 140712
NUMBER_OF_BYTES : 6276998882
_STATISTICS_WRITING_APP : mkvmerge v7.3.0 ('Nouages') 64bit built on Oct 22 2014 18:53:34
_STATISTICS_WRITING_DATE_UTC : 2014-12-13 17:59:41
_STATISTICS_TAGS : BPS DURATION NUMBER_OF_FRAMES NUMBER_OF_BYTES
Audio #1
ID : 2
Format : AC-3
Format/Info : Audio Coding 3
Mode extension : CM (complete main)
Format settings, Endianness : Big
Codec ID : A_AC3
Duration : 1h 38mn
Bit rate mode : Constant
Bit rate : 640 Kbps
Channel(s) : 6 channels
Channel positions : Front: L C R, Side: L R, LFE
Sampling rate : 48.0 KHz
Bit depth : 16 bits
Compression mode : Lossy
Stream size : 450 MiB (6%)
Title : MVO - BaiBaKo
Language : Russian
Default : Yes
Forced : No
Audio #2
ID : 3
Format : AC-3
Format/Info : Audio Coding 3
Mode extension : CM (complete main)
Format settings, Endianness : Big
Codec ID : A_AC3
Duration : 1h 38mn
Bit rate mode : Constant
Bit rate : 640 Kbps
Channel(s) : 6 channels
Channel positions : Front: L C R, Side: L R, LFE
Sampling rate : 48.0 KHz
Bit depth : 16 bits
Compression mode : Lossy
Stream size : 450 MiB (6%)
Title : AVO - Дмитрий Есарев (без цензуры)
Language : Russian
Default : No
Forced : No
Audio #3
ID : 4
Format : AC-3
Format/Info : Audio Coding 3
Mode extension : CM (complete main)
Format settings, Endianness : Big
Codec ID : A_AC3
Duration : 1h 38mn
Bit rate mode : Constant
Bit rate : 640 Kbps
Channel(s) : 6 channels
Channel positions : Front: L C R, Side: L R, LFE
Sampling rate : 48.0 KHz
Bit depth : 16 bits
Compression mode : Lossy
Stream size : 450 MiB (6%)
Title : AVO - Дмитрий Есарев (цензурный)
Language : Russian
Default : No
Forced : No
Audio #4
ID : 5
Format : AC-3
Format/Info : Audio Coding 3
Mode extension : CM (complete main)
Format settings, Endianness : Big
Codec ID : A_AC3
Duration : 1h 38mn
Bit rate mode : Constant
Bit rate : 640 Kbps
Channel(s) : 6 channels
Channel positions : Front: L C R, Side: L R, LFE
Sampling rate : 48.0 KHz
Bit depth : 16 bits
Compression mode : Lossy
Stream size : 450 MiB (6%)
Language : English
Default : No
Forced : No
Text
ID : 6
Format : UTF-8
Codec ID : S_TEXT/UTF8
Codec ID/Info : UTF-8 Plain Text
Language : English
Default : No
Forced : No
Menu
00:00:00.000 : en:00:00:00.000
00:06:04.656 : en:00:06:04.656
00:08:31.678 : en:00:08:31.678
00:15:55.538 : en:00:15:55.538
00:22:33.602 : en:00:22:33.602
00:28:53.273 : en:00:28:53.273
00:34:25.689 : en:00:34:25.689
00:41:07.632 : en:00:41:07.632
00:47:33.059 : en:00:47:33.059
00:52:05.372 : en:00:52:05.372
00:58:46.356 : en:00:58:46.356
01:05:18.832 : en:01:05:18.832
01:12:06.656 : en:01:12:06.656
01:17:43.117 : en:01:17:43.117
01:22:50.382 : en:01:22:50.382
01:29:37.956 : en:01:29:37.956

Скриншоты

Релиз от: |
[Профиль] [ЛС]
Показать сообщения:    

Текущее время: Сегодня 22:19

Часовой пояс: GMT



Вы не можете начинать темы
Вы не можете отвечать на сообщения
Вы не можете редактировать свои сообщения
Вы не можете удалять свои сообщения
Вы не можете голосовать в опросах
Вы не можете прикреплять файлы к сообщениям
Вы не можете скачивать файлы