Патология / Pathology (2008) BDRip 720p | D

 
Автор Сообщение

sergej644 ®

Пол:

Стаж: 4 года 11 месяцев

Сообщений: 6046

Откуда: Soviet Union



Награды: Нет

Торрент-статистика

Создавать темы 13-Фев-2015 18:05

[Цитировать]

-- Информация о фильме
Название: Патология
Оригинальное название: Pathology
Год выхода: 2008
Жанр: ужасы, триллер, криминал
Режиссер: Марк Шолерманн
В ролях: Майло Вентимилья, Майкл Уэстон, Алисса Милано, Лорен Ли Смит, Джонни Витуорт, Джон де Ланси, Мей Меланкон, Кейр О’Доннелл, Бадди Льюис, Дэн Каллахан
О фильме:
Молодой и талантливый доктор Грей, закончив Гарвард с отличием, мечтает стать патологоанатомом. И где как не в лучшей клинике города, он может поднабраться опыта и осуществить свою мечту. Рассудив таким образом, Грей поступает в интернатуру в огромный госпиталь.
Здесь он заводит новые знакомства, благодаря которым у него появляются и новые увлечения. Например, вечерами он стал любить собираться с коллегами в морге и глумиться над трупами бомжей и наркоманов. Однако, вскоре Грей понимает, что его жизнь и он сам изменились не в лучшую сторону. Но осознав свое нежелание участвовать в проказах своих новоиспеченных товарищей, он вскоре понял, что на месте «неизвестного трупа» в морге может оказаться он сам.

Страна: США
Продолжительность: 01:34:49
Перевод: Дублированный
Файл
Кодек: x.264
Качество: BDRip-720p (BDRemux / 1080p)
Видео: 1280x544, 23,976 fps, 3750 kbps
Аудио: 48 kHz, AC3 Dolby Digital, 6 ch, ~384.00 kbps

M/I

General
Unique ID : 244134460829920090368554817527074321201 (0xB7AA963C414471058C655407B46CF331)
Complete name : D:Pathology.(2008).BDRip-720p.[-=DoMiNo=-].mkv
Format : Matroska
Format version : Version 2
File size : 2.74 GiB
Duration : 1h 34mn
Overall bit rate : 4 133 Kbps
Encoded date : UTC 2014-11-02 10:06:08
Writing application : mkvmerge v6.1.0 ('Old Devil') built on Mar 4 2013 09:10:42
Writing library : libebml v1.3.0 + libmatroska v1.4.0
Video
ID : 1
Format : AVC
Format/Info : Advanced Video Codec
Format profile : High@L4.1
Format settings, CABAC : Yes
Format settings, ReFrames : 9 frames
Codec ID : V_MPEG4/ISO/AVC
Duration : 1h 34mn
Bit rate : 3 750 Kbps
Width : 1 280 pixels
Height : 544 pixels
Display aspect ratio : 2.35:1
Frame rate mode : Constant
Frame rate : 23.976 fps
Color space : YUV
Chroma subsampling : 4:2:0
Bit depth : 8 bits
Scan type : Progressive
Bits/(Pixel*Frame) : 0.225
Stream size : 2.43 GiB (89%)
Writing library : x264 core 130 r2273 b3065e6
Encoding settings : cabac=1 / ref=9 / deblock=1:-3:-3 / analyse=0x3:0x133 / me=umh / subme=11 / psy=1 / psy_rd=1.00:0.50 / mixed_ref=1 / me_range=48 / chroma_me=1 / trellis=2 / 8x8dct=1 / cqm=0 / deadzone=21,11 / fast_pskip=0 / chroma_qp_offset=-3 / threads=12 / lookahead_threads=4 / sliced_threads=0 / slices=4 / nr=0 / decimate=1 / interlaced=0 / bluray_compat=0 / constrained_intra=0 / bframes=10 / b_pyramid=2 / b_adapt=2 / b_bias=0 / direct=3 / weightb=1 / open_gop=0 / weightp=2 / keyint=250 / keyint_min=23 / scenecut=40 / intra_refresh=0 / rc_lookahead=60 / rc=2pass / mbtree=1 / bitrate=3750 / ratetol=1.0 / qcomp=0.70 / qpmin=0 / qpmax=69 / qpstep=4 / cplxblur=20.0 / qblur=0.5 / ip_ratio=1.40 / aq=1:1.50
Default : Yes
Forced : No
Audio
ID : 2
Format : AC-3
Format/Info : Audio Coding 3
Mode extension : CM (complete main)
Format settings, Endianness : Big
Codec ID : A_AC3
Duration : 1h 34mn
Bit rate mode : Constant
Bit rate : 384 Kbps
Channel(s) : 6 channels
Channel positions : Front: L C R, Side: L R, LFE
Sampling rate : 48.0 KHz
Bit depth : 16 bits
Compression mode : Lossy
Stream size : 260 MiB (9%)
Default : Yes
Forced : No
----
[Профиль] [ЛС]
Показать сообщения:    

Текущее время: Сегодня 22:42

Часовой пояс: GMT



Вы не можете начинать темы
Вы не можете отвечать на сообщения
Вы не можете редактировать свои сообщения
Вы не можете удалять свои сообщения
Вы не можете голосовать в опросах
Вы не можете прикреплять файлы к сообщениям
Вы не можете скачивать файлы