Пастырь / Priest (2011) BDRip 1080p

 
Автор Сообщение

Russian Mafia ®

Пол:

Стаж: 1 год 8 месяцев

Сообщений: 4257



Награды: 10 (Подробнее)

Top Releaser 3 (Количество: 1) Top Releaser 2 (Количество: 1) Mega Seeder 5 (Количество: 1)
Торрент-статистика

Создавать темы 10-Сен-2015 18:50

[Цитировать]

Информация о фильме
Название: Пастырь
Оригинальное название: Priest
Год выхода: 2011
Жанр: ужасы, фантастика, боевик, триллер
Режиссер: Скотт Чарльз Стюарт
В ролях: Пол Беттани, Карл Урбан, Кэм Жиганде, Мэгги Кью, Лили Коллинз, Брэд Дуриф, Стивен Мойер, Кристофер Пламмер, Алан Дэйл, Медкен Эмик
О фильме: Далекое будущее. Миром правят религия и церковь. Священник, нарушая все церковные запреты, пытается выследить банду вампиров, похитивших его племянницу. В поисках ему помогают шериф и монахиня.

Выпущено: Screen Gems
Продолжительность: 01:27:27
Перевод: Дублированный
Файл
Кодек: x264
Качество: BDRip (источник: Blu-ray Disc)
Видео: 1920x800 (2,40:1), 23.976 fps, 6707 kbps
Звук: 48 kHz, AC-3, 6 ch, 448 kbps
Субтитры: Русские, Английские
Скачать: сэмпл
Скриншоты

MI

Общее
Уникальный идентификатор : 186744294457881747729629728819720090594 (0x8C7DA492BC059863A03321356DE1F3E2)
Полное имя : Priest.2011.BDRip.1080p.Rus.mkv
Формат : Matroska
Версия формата : Version 2
Размер файла : 4,37 Гбайт
Продолжительность : 1 ч. 27 м.
Общий поток : 7157 Кбит/сек
Дата кодирования : UTC 2011-08-02 14:05:07
Программа кодирования : mkvmerge v4.0.0 ('The Stars were mine') сборка от Jun 6 2010 16:18:42
Библиотека кодирования : libebml v1.0.0 + libmatroska v1.0.0
Видео
Идентификатор : 1
Формат : AVC
Формат/Информация : Advanced Video Codec
Профиль формата : High@L4.1
Параметр CABAC формата : Да
Параметр ReFrames формата : 5 кадров
Идентификатор кодека : V_MPEG4/ISO/AVC
Продолжительность : 1 ч. 27 м.
Битрейт : 6707 Кбит/сек
Ширина : 1920 пикс.
Высота : 800 пикс.
Соотношение сторон : 2,40:1
Частота кадров : 23,976 кадр/сек
Цветовое пространство : YUV
Подвыборка цветности : 4:2:0
Битовая глубина : 8 бит
Тип развёртки : Прогрессивная
Бит/(Пиксели*Кадры) : 0.182
Размер потока : 4,01 Гбайт (92%)
Библиотека кодирования : x264 core 116 r2044 392e762
Настройки программы : cabac=1 / ref=5 / deblock=1:0:0 / analyse=0x3:0x133 / me=umh / subme=10 / psy=1 / psy_rd=1.00:0.10 / mixed_ref=1 / me_range=32 / chroma_me=1 / trellis=2 / 8x8dct=1 / cqm=0 / deadzone=21,11 / fast_pskip=0 / chroma_qp_offset=-3 / threads=12 / sliced_threads=0 / nr=0 / decimate=1 / interlaced=0 / bluray_compat=0 / constrained_intra=0 / bframes=5 / b_pyramid=2 / b_adapt=2 / b_bias=0 / direct=3 / weightb=1 / open_gop=0 / weightp=2 / keyint=250 / keyint_min=23 / scenecut=40 / intra_refresh=0 / rc_lookahead=60 / rc=2pass / mbtree=1 / bitrate=6707 / ratetol=1.0 / qcomp=0.60 / qpmin=0 / qpmax=69 / qpstep=4 / cplxblur=20.0 / qblur=0.5 / ip_ratio=1.40 / aq=1:1.00
Язык : English
Аудио
Идентификатор : 2
Формат : AC-3
Формат/Информация : Audio Coding 3
Расширение режима : CM (complete main)
Идентификатор кодека : A_AC3
Продолжительность : 1 ч. 27 м.
Вид битрейта : Постоянный
Битрейт : 448 Кбит/сек
Каналы : 6 каналов
Расположение каналов : Front: L C R, Side: L R, LFE
Частота : 48,0 КГц
Битовая глубина : 16 бит
Метод сжатия : С потерями
Размер потока : 280 Мбайт (6%)
Язык : Russian
Текст #1
Идентификатор : 3
Формат : UTF-8
Идентификатор кодека : S_TEXT/UTF8
Идентификатор кодека/Информация : UTF-8 Plain Text
Язык : Russian
Текст #2
Идентификатор : 4
Формат : UTF-8
Идентификатор кодека : S_TEXT/UTF8
Идентификатор кодека/Информация : UTF-8 Plain Text
Язык : English

x264

x264 [info]: frame I:1117 Avg QP:15.50 size:191599
x264 [info]: frame P:30403 Avg QP:18.82 size: 58684
x264 [info]: frame B:94288 Avg QP:20.60 size: 25463
[Профиль] [ЛС]
Показать сообщения:    

Текущее время: Сегодня 11:54

Часовой пояс: GMT



Вы не можете начинать темы
Вы не можете отвечать на сообщения
Вы не можете редактировать свои сообщения
Вы не можете удалять свои сообщения
Вы не можете голосовать в опросах
Вы не можете прикреплять файлы к сообщениям
Вы не можете скачивать файлы