Пассажиры / Passengers (2016) BDRip 2160p | D

 
Автор Сообщение

BOSS ®

Пол:

Стаж: 3 года 1 месяц

Сообщений: 8254

Откуда: ODESSA



Награды: 22 (Подробнее)

Mega Seeder 2 (Количество: 1) Top Seeder 4 (Количество: 1) Top Releaser 4 (Количество: 1)
Торрент-статистика

Создавать темы 12-Сен-2017 07:29

[Цитировать]

Информация о фильме
Название: Пассажиры
Оригинальное название: Passengers
Год выхода: 2016
Жанр: фантастика, драма, мелодрама
Режиссер: Мортен Тильдум / Morten Tyldum
В ролях: Дженнифер Лоуренс, Крис Пратт, Майкл Шин, Лоренс Фишбёрн, Энди Гарсиа, Винс Фостер, Кара Мишель Уайлдер, Конор Брофи, Джули Серда, Аврора Перрино
О фильме:
Космический корабль с 5 000 пассажирами на борту, погруженных на время полета в искусственный сон, держит курс на планету, которая станет для них новым домом. Всё идет по плану, но из-за сбоя системы двое пассажиров неожиданно просыпаются и понимают, что до конечного пункта путешествия 90 лет пути, и им суждено остаток жизни провести вдвоем в роскошных интерьерах корабля, оснащенного по последнему слову техники. Постепенно Джима и Аврору начинает непреодолимо тянуть друг к другу, но корабль попадает в беду, и теперь в их руках — жизнь и судьба всех обитателей корабля.

Страна: США
Студия: Columbia Pictures, Company Films, LStar Capital, Original Film
Продолжительность: 01:56:11
Перевод: дубляж
Файл
Кодек: x264
Качество: UHD BDRip 2160p
Видео: 3840x1604 (2.40:1), 23.976fps, 40,6 Mb/s, 8 bits
Звук:
Русский / Дубляж (Blu-Ray EUR), Dolby AC3 48000Hz 6ch 640kbps
Украинский / Дубляж (Blu-Ray EUR), Dolby AC3 48000Hz 6ch 640kbps
Английский / Dolby AC3 48000Hz 6ch 640kbps
Субтитры: русские forced, русские, украинские forced, украинские, английские, английские SDH (все субтитры softsub (SRT))
Семпл

Дополнительная информация:

Авторы рипа SWEATY BALLZ (SWTYBLZ). Оригинальное название их файла Passengers.2016.2160p.BluRay.x264.8bit.SDR.DTS-HD.MA.TrueHD.7.1.Atmos-SWTYBLZ
Цитата: Converted from 10 bit HDR to 8 bit SDR using tripple mixed Hable-Reinhard-JJ per scene+frame analysis algorithm
Как утверждается, это рип с Ultra HD Blu-Ray. Не верить причин нет. 10-битное видео с HDR конвертировали в 8-битное без HDR. И кодек x264. Проще говоря, цвета здесь нормальные яркие без всяких манипуляций с madVR, например. Да и вообще, на слабых компьютерах процессор поменьше грузит. Кому нужны цвета HDR, тому искать ремукс или другие рипы. А это - вроде как эконом-рип, если так вообще можно сказать про видео 2160p.

MediaInfo

General
Unique ID : 246378778199271536188958592875280625396 (0xB95AD39FF5DBF858BF1C8C4D7AC26EF4)
Complete name : F:FilmsUHDPassengers.2016.2160p.BluRay.x264.8bit.SDR.Rus.mkv
Format : Matroska
Format version : Version 4 / Version 2
File size : 35.2 GiB
Duration : 1 h 56 min
Overall bit rate : 43.4 Mb/s
Encoded date : UTC 2017-09-12 03:52:54
Writing application : mkvmerge v15.0.0 ('Duel with the Devil') 64-bit
Writing library : libebml v1.3.5 + libmatroska v1.4.5
Video
ID : 1
Format : AVC
Format/Info : Advanced Video Codec
Format profile : High@L5.1
Format settings, CABAC : Yes
Format settings, RefFrames : 5 frames
Codec ID : V_MPEG4/ISO/AVC
Duration : 1 h 56 min
Bit rate : 40.6 Mb/s
Width : 3 840 pixels
Height : 1 604 pixels
Display aspect ratio : 2.40:1
Frame rate mode : Constant
Frame rate : 23.976 (24000/1001) FPS
Color space : YUV
Chroma subsampling : 4:2:0
Bit depth : 8 bits
Scan type : Progressive
Bits/(Pixel*Frame) : 0.275
Stream size : 33.0 GiB (94%)
Title : Passengers.2016.2160p.BluRay.x264.8bit.SDR.DTS-HD.MA.TrueHD.7.1.Atmos-SWTYBLZ
Writing library : x264 core 148 r2748 97eaef2
Encoding settings : cabac=1 / ref=5 / deblock=1:-1:-1 / analyse=0x3:0x113 / me=umh / subme=10 / psy=1 / psy_rd=1.00:0.15 / mixed_ref=1 / me_range=48 / chroma_me=1 / trellis=2 / 8x8dct=1 / cqm=0 / deadzone=21,11 / fast_pskip=1 / chroma_qp_offset=-3 / threads=50 / lookahead_threads=4 / sliced_threads=0 / nr=0 / decimate=0 / interlaced=0 / bluray_compat=0 / constrained_intra=0 / bframes=3 / b_pyramid=2 / b_adapt=2 / b_bias=0 / direct=3 / weightb=1 / open_gop=0 / weightp=2 / keyint=250 / keyint_min=23 / scenecut=40 / intra_refresh=0 / rc_lookahead=50 / rc=crf / mbtree=1 / crf=16.0 / qcomp=0.60 / qpmin=0 / qpmax=69 / qpstep=4 / ip_ratio=1.40 / aq=1:1.00
Language : English
Default : Yes
Forced : No
Audio #1
ID : 2
Format : AC-3
Format/Info : Audio Coding 3
Format settings, Endianness : Big
Codec ID : A_AC3
Duration : 1 h 56 min
Bit rate mode : Constant
Bit rate : 640 kb/s
Channel(s) : 6 channels
Channel positions : Front: L C R, Side: L R, LFE
Sampling rate : 48.0 kHz
Frame rate : 31.250 FPS (1536 SPF)
Bit depth : 16 bits
Compression mode : Lossy
Stream size : 532 MiB (1%)
Title : AC3 5.1 @ 640 kbps - DUB, Blu-ray EUR
Language : Russian
Service kind : Complete Main
Default : Yes
Forced : No
Audio #2
ID : 3
Format : AC-3
Format/Info : Audio Coding 3
Format settings, Endianness : Big
Codec ID : A_AC3
Duration : 1 h 56 min
Bit rate mode : Constant
Bit rate : 640 kb/s
Channel(s) : 6 channels
Channel positions : Front: L C R, Side: L R, LFE
Sampling rate : 48.0 kHz
Frame rate : 31.250 FPS (1536 SPF)
Bit depth : 16 bits
Compression mode : Lossy
Stream size : 532 MiB (1%)
Title : AC3 5.1 @ 640 kbps - DUB, Blu-ray EUR
Language : Ukrainian
Service kind : Complete Main
Default : No
Forced : No
Audio #3
ID : 4
Format : AC-3
Format/Info : Audio Coding 3
Format settings, Endianness : Big
Codec ID : A_AC3
Duration : 1 h 56 min
Bit rate mode : Constant
Bit rate : 640 kb/s
Channel(s) : 6 channels
Channel positions : Front: L C R, Side: L R, LFE
Sampling rate : 48.0 kHz
Frame rate : 31.250 FPS (1536 SPF)
Bit depth : 16 bits
Compression mode : Lossy
Stream size : 532 MiB (1%)
Title : AC3 5.1 @ 640 kbps
Language : English
Service kind : Complete Main
Default : No
Forced : No
Text #1
ID : 5
Format : UTF-8
Codec ID : S_TEXT/UTF8
Codec ID/Info : UTF-8 Plain Text
Title : Forced
Language : Russian
Default : No
Forced : Yes
Text #2
ID : 6
Format : UTF-8
Codec ID : S_TEXT/UTF8
Codec ID/Info : UTF-8 Plain Text
Language : Russian
Default : No
Forced : No
Text #3
ID : 7
Format : UTF-8
Codec ID : S_TEXT/UTF8
Codec ID/Info : UTF-8 Plain Text
Title : Forced
Language : Ukrainian
Default : No
Forced : No
Text #4
ID : 8
Format : UTF-8
Codec ID : S_TEXT/UTF8
Codec ID/Info : UTF-8 Plain Text
Language : Ukrainian
Default : No
Forced : No
Text #5
ID : 9
Format : UTF-8
Codec ID : S_TEXT/UTF8
Codec ID/Info : UTF-8 Plain Text
Language : English
Default : No
Forced : No
Text #6
ID : 10
Format : UTF-8
Codec ID : S_TEXT/UTF8
Codec ID/Info : UTF-8 Plain Text
Title : SDH
Language : English
Default : No
Forced : No
Menu
00:00:00.000 : en:Chapter 1
00:07:04.674 : en:Chapter 2
00:14:38.210 : en:Chapter 3
00:20:33.649 : en:Chapter 4
00:25:06.338 : en:Chapter 5
00:30:30.662 : en:Chapter 6
00:40:47.987 : en:Chapter 7
00:50:23.020 : en:Chapter 8
00:57:28.945 : en:Chapter 9
01:02:54.812 : en:Chapter 10
01:10:47.159 : en:Chapter 11
01:17:48.664 : en:Chapter 12
01:25:17.028 : en:Chapter 13
01:31:45.041 : en:Chapter 14
01:37:53.242 : en:Chapter 15
01:42:18.549 : en:Chapter 16

Скриншоты

[Профиль] [ЛС]
Показать сообщения:    

Текущее время: Сегодня 05:44

Часовой пояс: GMT



Вы не можете начинать темы
Вы не можете отвечать на сообщения
Вы не можете редактировать свои сообщения
Вы не можете удалять свои сообщения
Вы не можете голосовать в опросах
Вы не можете прикреплять файлы к сообщениям
Вы не можете скачивать файлы