Паршивая овца / Black Sheep (Джонатан Кинг / Jonathan King) [2006, Новая Зеландия, ужасы, комедия, BDRip] Dub + DVO (Ukr) + Sub (Rus. Ukr. Eng) + Original Eng

 
Автор Сообщение

painkiller ®

Стаж: 2 года 3 месяца

Сообщений: 582



Награды: Нет

Торрент-статистика

Создавать темы 14-Авг-2014 13:02

[Цитировать]

Паршивая овца / Black Sheep-«Бе-е-е-ее! Дуй отсюда!!»- Страна: Новая Зеландия
Жанр: ужасы, комедия
Год выпуска: 2006
Продолжительность: 01:26:26
Перевод 1: Профессиональный (дублированный)
Перевод 2: Профессиональный (двухголосый закадровый) Украинский
Cубтитры: русские, украинские, английские
Оригинальная аудиодорожка: английский
Режиссер: Джонатан Кинг / Jonathan King
В ролях: Натан Майстер, Даниэль Мэйсон, Питер Вини, Тэмми Дэвис, Гленис Левестам, Тэнди Райт, Оливер Драйвер, Мэттью Чемберлен, Ник Фентон, Сэм Кларк
Описание: Генри Олдфилд, панически боящийся овец и проходящий курс лечения, возвращается на ферму своего отца, чтобы продать дело своему старшему брату Ангусу. Он не знает, что на ферме происходит нечто оооочень страшное: Ангус безрассудно запустил программу генной инженерии.
Когда два ярых поборника защиты окружающей среды — не ведая что творят — выпускают мутанта-ягненка из лаборатории Ангуса на ферму, тысячи овец превращаются в кровожадных хищников. Вместе с помощником на ферме Такером и новоприбывшей девушкой Экспириенс Генри оказывается в самом сердце фермы как раз в то время, когда его самый страшный ночной кошмар становится явью.
Пробивая себе путь к безопасному месту, отважная троица обнаруживает, что худшее впереди: оказывается, что один укус инфицированной овцы странным и тревожным образом влияет на укушенных…
Качество видео: BDRip (Black.Sheep.2006.Blu-ray.1080p)
Формат видео: AVI
Сэмпл: http://multi-up.com/961581
Видео: 720x304 (2.35:1), 24.000 fps, XviD MPEG-4 ~2297 kbps avg, 0.437 bit/pixel
Аудио 1: 48 kHz, AC3 Dolby Digital, 3/2 (L,C,R,l,r) + LFE ch, ~448 kbps - Дубляж
Аудио 2: 48 kHz, AC3 Dolby Digital, 2/0 (L,R) ch, ~192 kbps - Профессиональный (двухголосый закадровый) - (Украинский - 2+2)
Аудио 3: 48 kHz, AC3 Dolby Digital, 3/2 (L,C,R,l,r) + LFE ch, ~448 kbps - Оригинал (Английский)
Формат субтитров: softsub (SRT)
Доп. информация о субтитрах: внешние
&

MediaInfo

Общее
Полное имя : D:\Рипы\Black.Sheep.2006.BDRip.Rus.Ukr.Eng\Black Sheep.2006.BDRip.avi
Формат : AVI
Формат/Информация : Audio Video Interleave
Профиль формата : OpenDML
Размер файла : 2,06 Гбайт
Продолжительность : 1 ч. 26 м.
Общий поток : 3409 Кбит/сек
Название фильма : Black Sheep.2006.BDRip
Режиссёр : rip by maygli
Программа кодирования : VirtualDubModRus 1.5.10.2 (build 2542/release)
Правообладатель : ... (RG Rulya74)
Видео
Идентификатор : 0
Формат : MPEG-4 Visual
Профиль формата : Advanced Simple@L5
Параметр BVOP формата : 1
Параметр QPel формата : Нет
Параметр GMC формата : Без точки перехода
Параметр матрицы формата : Выборочная
Идентификатор кодека : XVID
Идентификатор кодека/Подсказка : XviD
Продолжительность : 1 ч. 26 м.
Битрейт : 2297 Кбит/сек
Ширина : 720 пикселей
Высота : 304 пикселя
Соотношение сторон : 2,35:1
Частота кадров : 24,000 кадра/сек
Цветовое пространство : YUV
Субдискретизация насыщенности : 4:2:0
Битовая глубина : 8 бит
Тип развёртки : Прогрессивная
Метод сжатия : С потерями
Бит/(Пиксели*Кадры) : 0.437
Размер потока : 1,39 Гбайт (67%)
Библиотека кодирования : XviD 65
Аудио #1
Идентификатор : 1
Формат : AC-3
Формат/Информация : Audio Coding 3
Расширение режима : CM (complete main)
Параметр Endianness формата : Big
Идентификатор кодека : 2000
Продолжительность : 1 ч. 26 м.
Вид битрейта : Постоянный
Битрейт : 448 Кбит/сек
Каналы : 6 каналов
Расположение каналов : Front: L C R, Side: L R, LFE
Частота : 48,0 КГц
Битовая глубина : 16 бит
Метод сжатия : С потерями
Размер потока : 277 Мбайт (13%)
Выравнивание : Разделение по промежуткам
Продолжительность промежутка : 42 мс. (1,00 видеокадр)
Время предзагрузки промежутка : 500 мс.
Заголовок : Дубляж
Аудио #2
Идентификатор : 2
Формат : AC-3
Формат/Информация : Audio Coding 3
Расширение режима : CM (complete main)
Параметр Endianness формата : Big
Идентификатор кодека : 2000
Продолжительность : 1 ч. 26 м.
Вид битрейта : Постоянный
Битрейт : 192 Кбит/сек
Каналы : 2 канала
Расположение каналов : Front: L R
Частота : 48,0 КГц
Битовая глубина : 16 бит
Метод сжатия : С потерями
Размер потока : 119 Мбайт (6%)
Выравнивание : Разделение по промежуткам
Продолжительность промежутка : 42 мс. (1,00 видеокадр)
Время предзагрузки промежутка : 500 мс.
Заголовок : Профессиональный (двухголосый закадровый) - (Украинский - 2+2)
Аудио #3
Идентификатор : 3
Формат : AC-3
Формат/Информация : Audio Coding 3
Расширение режима : CM (complete main)
Параметр Endianness формата : Big
Идентификатор кодека : 2000
Продолжительность : 1 ч. 26 м.
Вид битрейта : Постоянный
Битрейт : 448 Кбит/сек
Каналы : 6 каналов
Расположение каналов : Front: L C R, Side: L R, LFE
Частота : 48,0 КГц
Битовая глубина : 16 бит
Метод сжатия : С потерями
Размер потока : 277 Мбайт (13%)
Выравнивание : Разделение по промежуткам
Продолжительность промежутка : 42 мс. (1,00 видеокадр)
Время предзагрузки промежутка : 500 мс.
Заголовок : Оригинал (Английский)

Скриншот c названием фильма

Скриншоты

[Профиль] [ЛС]

Создавать темы 06-Авг-2015 23:13 (спустя 11 месяцев 23 дня)

Топик был перенесен из форума Фильмы до 2014 года в форум Фильмы до 2012 года
sergej644
 
Показать сообщения:    

Текущее время: Сегодня 20:42

Часовой пояс: GMT



Вы не можете начинать темы
Вы не можете отвечать на сообщения
Вы не можете редактировать свои сообщения
Вы не можете удалять свои сообщения
Вы не можете голосовать в опросах
Вы не можете прикреплять файлы к сообщениям
Вы не можете скачивать файлы