Парфюмер: История одного убийцы / Perfume: The Story of a Murderer (Том Тыквер / Tom Tykwer) [2006, Германия, Франция, Испания, США, фэнтези, драма, криминал, BDRip-AVC] Dub (Rus) + Dub (Ukr) + AVO (Немахов) + Original (Eng) + Subs

 
Автор Сообщение

TorrentFilm ®

Пол:

Стаж: 1 год 11 месяцев

Сообщений: 7741



Награды: Нет

Торрент-статистика

Создавать темы 14-Янв-2015 00:00

[Цитировать]

Парфюмер: История одного убийцы / Perfume: The Story of a Murderer
«He lived to find beauty. He killed to possess it»
- Страна: Германия, Франция, Испания, США | Castelao Producciones S.A, Constantin Film Produktion GmbH, Davis-Films, Ikiru Films S.L., Nouvelles Éditions de Films, Rising Star, VIP 4 Medienfonds
Жанр: фэнтези, драма, криминал
Год выпуска: 2006
Продолжительность: 02:27:24 час.
Перевод #1: Профессиональный (полное дублирование) - Русский
Перевод #2: Профессиональный (полное дублирование) - Украинский | отдельно
Перевод #3: Авторский (одноголосый закадровый) - Ю.Немахов | отдельно
Субтитры: Russian (Full), English (Full)
Оригинальная аудиодорожка: Английская
Навигация по главам: Присутствует (23 главы)
Режиссер: Том Тыквер / Tom Tykwer
В ролях: Бен Уишоу, Рейчел Херд-Вуд, Дастин Хоффман, Биргит Минихмайр, Алан Рикман, Шан Томас, Тимоти Дэвис, Дора Романо, Сара Форестье, Дэвид Колдер, Джон Хёрт, Франсеск Альбиоль, Гонсало Канилл, Роджер Салвани, Андрес Херрера, Саймон Чэндлер, Ричард Феликс, Рег Уилсон, Катрин Буагонтье, Нурия Касас, Карлос Грамаж, Майкл Смайли, Уолтер Котс, Перри Миллворд, Жан Кортес, Берта Рос, Альваро Рок, Франк Лефевр, Сэм Дуглас, Джоан Серратс, Жауме Монтане, Бриджет МакКоннелл, Дуна Жове, Каролине Херфурт, Каролина Вера-Сквелла, Коринна Харфух, Пол Беррондо
Описание: Жестокий, никогда не знавший любви, сирота Жан-Батист Гренуй настоящих успехов достиг лишь на одном поприще — среди парфюмеров ему никогда не было равных. По его духам сходит с ума весь высший свет, не подозревая о том, какой страшной ценой будет получен последний, идеальный аромат.

Качество: BDRip-AVC => Сэмпл | исх. Парфюмер: История одного убийцы / Perfume: The Story of a Murderer (2006) 1080p BD-Remux - HDCLUB
Формат видео: MKV
Видео: 1146x488p (2.40:1), 23,976 fps, H.264 ~3 263 kbps avg, 0.237 bit/pixel
Аудио #1: 48 kHz, AC3, 3/2 (L,C,R,l,r) + LFE ch, ~448.00 kbps avg | Профессиональный (полное дублирование) - Русский
Аудио #2: 48 kHz, AC3, 3/2 (L,C,R,l,r) + LFE ch, ~384.00 kbps avg | Профессиональный (полное дублирование) - Украинский | отдельно
Аудио #3: 48 kHz, AC3, 3/2 (L,C,R,l,r) + LFE ch, ~448.00 kbps avg | Авторский (одноголосый закадровый) - Ю.Немахов | отдельно
Аудио #4: 48 kHz, AC3, 3/2 (L,C,R,l,r) + LFE ch, ~448.00 kbps avg | Оригинал (английский)
Формат субтитров: softsub (SRT)

MediaInfo | log x264log x264

raw [info]: 1146x488p 1:1 @ 24000/1001 fps (cfr)
x264 [info]: using SAR=1/1
x264 [info]: using cpu capabilities: MMX2 SSE2Fast SSSE3 SSE4.2 AVX
x264 [info]: profile High, level 4.1
x264 [info]: cabac=1 ref=13 deblock=1:-2:-1 analyse=0x3:0x133 me=umh subme=11 psy=1 fade_compensate=0.00 psy_rd=1.05:0.00 mixed_ref=1 me_range=32 chroma_me=1 trellis=2 8x8dct=1 cqm=0 deadzone=21,11 fast_pskip=0 chroma_qp_offset=-2 threads=6 lookahead_threads=1 sliced_threads=0 nr=0 decimate=1 interlaced=0 bluray_compat=0 constrained_intra=0 fgo=0 bframes=16 b_pyramid=2 b_adapt=2 b_bias=0 direct=1 weightb=1 open_gop=0 weightp=2 keyint=250 keyint_min=23 scenecut=40 intra_refresh=0 rc_lookahead=40 rc=crf mbtree=0 crf=17.4000 qcomp=0.65 qpmin=0 qpmax=69 qpstep=4 vbv_maxrate=50000 vbv_bufsize=62500 crf_max=0.0 nal_hrd=none filler=0 ip_ratio=1.40 pb_ratio=1.30 aq=3:0.90
x264 [info]: frame I:1683 Avg QP:14.65 size: 78931
x264 [info]: frame P:40918 Avg QP:16.26 size: 33371
x264 [info]: frame B:169463 Avg QP:18.00 size: 12450
x264 [info]: consecutive B-frames: 1.6% 3.0% 4.9% 14.2% 16.3% 35.1% 7.8% 1.8% 2.7% 2.6% 2.1% 0.9% 2.1% 2.6% 1.0% 0.4% 0.8%
x264 [info]: mb I I16..4: 5.8% 81.6% 12.6%
x264 [info]: mb P I16..4: 0.6% 12.8% 1.1% P16..4: 25.1% 31.9% 16.9% 2.6% 0.2% skip: 8.8%
x264 [info]: mb B I16..4: 0.1% 1.4% 0.1% B16..8: 33.6% 24.6% 5.5% direct: 6.5% skip:28.2% L0:44.4% L1:42.3% BI:13.3%
x264 [info]: 8x8 transform intra:86.5% inter:55.7%
x264 [info]: coded y,uvDC,uvAC intra: 90.6% 92.8% 78.6% inter: 32.5% 22.9% 4.5%
x264 [info]: i16 v,h,dc,p: 70% 8% 6% 16%
x264 [info]: i8 v,h,dc,ddl,ddr,vr,hd,vl,hu: 12% 8% 8% 10% 13% 12% 12% 12% 13%
x264 [info]: i4 v,h,dc,ddl,ddr,vr,hd,vl,hu: 12% 7% 8% 9% 15% 14% 13% 11% 12%
x264 [info]: i8c dc,h,v,p: 47% 20% 16% 17%
x264 [info]: Weighted P-Frames: Y:7.4% UV:4.6%
x264 [info]: ref P L0: 44.2% 9.8% 18.0% 6.6% 5.7% 3.7% 3.5% 1.8% 1.8% 1.3% 1.3% 1.0% 1.1% 0.1% 0.0%
x264 [info]: ref B L0: 66.2% 13.6% 6.8% 3.7% 2.6% 2.1% 1.6% 1.0% 0.8% 0.8% 0.4% 0.2%
x264 [info]: ref B L1: 91.3% 8.7%
x264 [info]: kb/s:3263.50
encoded 212064 frames, 2.96 fps, 3263.50 kb/s
General
Unique ID : 210462200538263336335011885116672353343 (0x9E558BA080B2D13FBBE4108D923AA43F)
Complete name : Perfume.The.Story.of.a.Murderer.2006.BDRip-AVC.Rus.Eng.Subs.by.zOJIOtOi.mkv
Format : Matroska
Format version : Version 4 / Version 2
File size : 4.29 GiB
Duration : 2h 27mn
Overall bit rate : 4 162 Kbps
Encoded date : UTC 2015-01-13 09:07:50
Writing application : mkvmerge v7.0.0 ('Where We Going') 64bit built on Jun 9 2014 15:16:27
Writing library : libebml v1.3.0 + libmatroska v1.4.1
DURATION : 02:17:15.227000000
NUMBER_OF_FRAMES : 902
NUMBER_OF_BYTES : 47501
_STATISTICS_WRITING_APP : mkvmerge v7.0.0 ('Where We Going') 64bit built on Jun 9 2014 15:16:27
_STATISTICS_WRITING_DATE_UTC : 2015-01-13 09:07:50
_STATISTICS_TAGS : BPS DURATION NUMBER_OF_FRAMES NUMBER_OF_BYTES
Attachment : Yes / Yes
Video
ID : 1
Format : AVC
Format/Info : Advanced Video Codec
Format profile : High@L4.1
Format settings, CABAC : Yes
Format settings, ReFrames : 13 frames
Codec ID : V_MPEG4/ISO/AVC
Duration : 2h 27mn
Bit rate : 3 183 Kbps
Width : 1 146 pixels
Height : 488 pixels
Display aspect ratio : 2.35:1
Frame rate mode : Constant
Frame rate : 23.976 fps
Color space : YUV
Chroma subsampling : 4:2:0
Bit depth : 8 bits
Scan type : Progressive
Bits/(Pixel*Frame) : 0.237
Stream size : 3.28 GiB (76%)
Title : tRuAVC | by zOJIOtOi
Writing library : x264 core 142 r2453kMod ea0ca51
Encoding settings : cabac=1 / ref=13 / deblock=1:-2:-1 / analyse=0x3:0x133 / me=umh / subme=11 / psy=1 / fade_compensate=0.00 / psy_rd=1.05:0.00 / mixed_ref=1 / me_range=32 / chroma_me=1 / trellis=2 / 8x8dct=1 / cqm=0 / deadzone=21,11 / fast_pskip=0 / chroma_qp_offset=-2 / threads=6 / lookahead_threads=1 / sliced_threads=0 / nr=0 / decimate=1 / interlaced=0 / bluray_compat=0 / constrained_intra=0 / fgo=0 / bframes=16 / b_pyramid=2 / b_adapt=2 / b_bias=0 / direct=1 / weightb=1 / open_gop=0 / weightp=2 / keyint=250 / keyint_min=23 / scenecut=40 / intra_refresh=0 / rc_lookahead=40 / rc=crf / mbtree=0 / crf=17.4000 / qcomp=0.65 / qpmin=0 / qpmax=69 / qpstep=4 / vbv_maxrate=50000 / vbv_bufsize=62500 / crf_max=0.0 / nal_hrd=none / filler=0 / ip_ratio=1.40 / pb_ratio=1.30 / aq=3:0.90
Language : English
Default : Yes
Forced : No
DURATION : 02:27:24.836000000
NUMBER_OF_FRAMES : 212064
NUMBER_OF_BYTES : 3608139271
_STATISTICS_WRITING_APP : mkvmerge v7.0.0 ('Where We Going') 64bit built on Jun 9 2014 15:16:27
_STATISTICS_WRITING_DATE_UTC : 2015-01-13 09:07:50
_STATISTICS_TAGS : BPS DURATION NUMBER_OF_FRAMES NUMBER_OF_BYTES
Color primaries : BT.709
Transfer characteristics : BT.709
Matrix coefficients : BT.709
Audio #1
ID : 2
Format : AC-3
Format/Info : Audio Coding 3
Mode extension : CM (complete main)
Format settings, Endianness : Big
Codec ID : A_AC3
Duration : 2h 27mn
Bit rate mode : Constant
Bit rate : 448 Kbps
Channel(s) : 6 channels
Channel positions : Front: L C R, Side: L R, LFE
Sampling rate : 48.0 KHz
Bit depth : 16 bits
Compression mode : Lossy
Stream size : 472 MiB (11%)
Title : Профессиональный (полное дублирование) | DD 5.1 @ 448 kbps
Language : Russian
Default : Yes
Forced : No
Audio #2
ID : 3
Format : AC-3
Format/Info : Audio Coding 3
Mode extension : CM (complete main)
Format settings, Endianness : Big
Codec ID : A_AC3
Duration : 2h 27mn
Bit rate mode : Constant
Bit rate : 448 Kbps
Channel(s) : 6 channels
Channel positions : Front: L C R, Side: L R, LFE
Sampling rate : 48.0 KHz
Bit depth : 16 bits
Compression mode : Lossy
Stream size : 472 MiB (11%)
Title : Оригинал (английский) | DD 5.1 @ 448 kbps
Language : English
Default : No
Forced : No
Text #1
ID : 4
Format : UTF-8
Codec ID : S_TEXT/UTF8
Codec ID/Info : UTF-8 Plain Text
Title : Full
Language : Russian
Default : No
Forced : No
Text #2
ID : 5
Format : UTF-8
Codec ID : S_TEXT/UTF8
Codec ID/Info : UTF-8 Plain Text
Title : Full
Language : English
Default : No
Forced : No
Menu
00:00:00.000 : en:00:00:00.000
00:04:08.747 : en:00:04:08.747
00:09:16.471 : en:00:09:16.471
00:12:10.187 : en:00:12:10.187
00:18:02.205 : en:00:18:02.205
00:27:41.660 : en:00:27:41.660
00:33:29.089 : en:00:33:29.089
00:43:56.842 : en:00:43:56.842
00:49:27.422 : en:00:49:27.422
00:58:21.706 : en:00:58:21.706
01:03:28.304 : en:01:03:28.304
01:08:19.929 : en:01:08:19.929
01:16:09.146 : en:01:16:09.146
01:21:56.536 : en:01:21:56.536
01:29:21.439 : en:01:29:21.439
01:36:42.128 : en:01:36:42.128
01:42:02.448 : en:01:42:02.448
01:47:58.305 : en:01:47:58.305
01:53:50.113 : en:01:53:50.113
01:56:57.342 : en:01:56:57.342
02:05:07.207 : en:02:05:07.207
02:11:20.872 : en:02:11:20.872
02:17:53.263 : en:02:17:53.263

Source vs rip by zOJIOtOi vs rip by Geralt iz Rivii vs rip by -= Andrew Placid =-

source

rip by zOJIOtOi

Geralt iz Rivii 4.37 Gb

-= Andrew Placid =- 8.17 Gb

Скриншоты



Релиз групп:
[Профиль] [ЛС]

Создавать темы 06-Авг-2015 22:48 (спустя 6 месяцев 23 дня)

Топик был перенесен из форума Фильмы до 2014 года в форум Фильмы до 2012 года
sergej644
 
Показать сообщения:    

Текущее время: Сегодня 20:08

Часовой пояс: GMT



Вы не можете начинать темы
Вы не можете отвечать на сообщения
Вы не можете редактировать свои сообщения
Вы не можете удалять свои сообщения
Вы не можете голосовать в опросах
Вы не можете прикреплять файлы к сообщениям
Вы не можете скачивать файлы