Партизан / Partisan (2015) WEB-DL 720p | L1

 
Автор Сообщение

Russian Mafia ®

Пол:

Стаж: 2 года 3 месяца

Сообщений: 4249



Награды: 10 (Подробнее)

Mega Seeder 4 (Количество: 1) Top Releaser 2 (Количество: 1) Mega Seeder 5 (Количество: 1)
Торрент-статистика

Создавать темы 16-Окт-2015 11:56

[Цитировать]

Информация о фильме
Название: Партизан
Оригинальное название: Partisan
Год выпуска: 2015
Жанр: триллер, драма
Режиссер: Эриель Клейман
В ролях: Венсан Кассель, Найджел Барбер, Jeremy Chabriel, Florence Mezzara, Тимоти Стайлз, Sapidah Kian, Сосина Вогаху, Natalia Gorbacheva, Katalin Hegedus, Csenge Birloni
О фильме: Речь в фильме пойдет о деспотичном отце семейства, который растит своих детей в изоляции от окружающего мира и прививает им человеконенавистническое восприятие общества. Повествование будет вестись от имени 11-летнего мальчика, осуждающего радикальные взгляды на жизнь своего отца.

Выпущено: Австралия / Animal Kingdom, Warp Films Australia
Продолжительность: 01:38:03
Озвучивание: Любительское (одноголосое) [Райм Закиров]
Файл
Формат: MKV
Качество: WEB-DL 720p
Видео: MPEG-4 AVC, 3998 kb/s, 1280x534
Аудио: Russian: AC3, 448 kb/s (6 ch) / English: AC3, 384 kb/s (6 ch)

MI

Format : Matroska
Format version : Version 2
File size : 3.37 GiB
Duration : 1h 38mn
Overall bit rate : 4 918 Kbps
Encoded date : UTC 2015-10-16 11:28:00
Writing application : mkvmerge v7.8.0 ('River Man') 32bit built on Apr 3 2015 12:11:22
Writing library : libebml v1.3.1 + libmatroska v1.4.2
Video
ID : 1
Format : AVC
Format/Info : Advanced Video Codec
Format profile : Main@L3.1
Format settings, CABAC : No
Format settings, ReFrames : 2 frames
Codec ID : V_MPEG4/ISO/AVC
Duration : 1h 38mn
Bit rate : 3 988 Kbps
Width : 1 280 pixels
Height : 534 pixels
Display aspect ratio : 2.40:1
Frame rate mode : Constant
Frame rate : 23.976 fps
Color space : YUV
Chroma subsampling : 4:2:0
Bit depth : 8 bits
Scan type : Progressive
Bits/(Pixel*Frame) : 0.243
Stream size : 2.73 GiB (81%)
Language : English
Default : Yes
Forced : No
Color range : Limited
Color primaries : BT.709
Transfer characteristics : BT.709
Matrix coefficients : BT.709
Audio #1
ID : 2
Format : AC-3
Format/Info : Audio Coding 3
Mode extension : CM (complete main)
Format settings, Endianness : Big
Codec ID : A_AC3
Duration : 1h 38mn
Bit rate mode : Constant
Bit rate : 448 Kbps
Channel(s) : 6 channels
Channel positions : Front: L C R, Side: L R, LFE
Sampling rate : 48.0 KHz
Bit depth : 16 bits
Compression mode : Lossy
Stream size : 314 MiB (9%)
Language : Russian
Default : Yes
Forced : No
Audio #2
ID : 3
Format : AC-3
Format/Info : Audio Coding 3
Mode extension : CM (complete main)
Format settings, Endianness : Big
Codec ID : A_AC3
Duration : 1h 38mn
Bit rate mode : Constant
Bit rate : 384 Kbps
Channel(s) : 6 channels
Channel positions : Front: L C R, Side: L R, LFE
Sampling rate : 48.0 KHz
Bit depth : 16 bits
Compression mode : Lossy
Stream size : 269 MiB (8%)
Language : English
Default : No
Forced : No
Menu
00:00:00.000 : en:1
00:07:20.000 : en:2
00:16:48.000 : en:3
00:24:10.000 : en:4
00:34:28.000 : en:5
00:44:25.000 : en:6
00:54:03.000 : en:7
01:03:06.000 : en:8
01:11:32.000 : en:9
01:21:19.000 : en:10
01:27:36.000 : en:11

Скриншоты



[Профиль] [ЛС]
Показать сообщения:    

Текущее время: Сегодня 00:27

Часовой пояс: GMT



Вы не можете начинать темы
Вы не можете отвечать на сообщения
Вы не можете редактировать свои сообщения
Вы не можете удалять свои сообщения
Вы не можете голосовать в опросах
Вы не можете прикреплять файлы к сообщениям
Вы не можете скачивать файлы