Пароль: Вечность / Code Name: Eternity (2000) TVRip (сезон 1, серии 1-26 из 26) РЕН-ТВ+BaibaKo

 
Автор Сообщение

sergej644 ®

Пол:

Стаж: 4 года 11 месяцев

Сообщений: 6043

Откуда: Soviet Union



Награды: Нет

Торрент-статистика

Создавать темы 20-Окт-2014 14:55

[Цитировать]

-Пароль: Вечность / Code Name: Eternity (2000) TVRip (сезон 1, серии 1-26 из 26) -Год выпуска: 2000
Жанр: Фантастика, Боевик, Приключения
Озвучка / Автор перевода: РЕН-ТВ, двухголосый закадровый (BaibaKo) на пропущенные моменты в озвучке РЕН-ТВ
Режиссер: Уильям Фруэт
Актеры: Cameron Bancroft / Кэмерон Бэнкрофт, Ingrid Kavelaars / Ингрид Кавелаарс, Gordon Currie / Гордон Курри, Olivier Gruner / Оливье Грюнер, Andrew Gillies / Эндрю Гиллис, Joseph Baldwin / Джозеф Болдуин, Hannes Jaenicke / Ханнес Янике
Описание фильма:
Главный герой сериала Этаниэл - пришелец из далекой галактики, прибывающий на Землю со специальной миссией. Он принимает форму человека, поскольку цель его миссии заключается в том, чтобы нейтрализовать другого пришельца из далеких миров, Дэвида Беннинга, представляющего силы, желающие уничтожить людей как вид. Кроме того, Этаниэл хочет найти своего брата Торбера, знаменитого ученого, которого Беннинг пытался использовать в своих целях. Волею обстоятельств рядом с Этаниэлом оказывается земная женщина, доктор Лора Китинг, которая, несмотря на всю невероятность ситуации, верит ему и искренне хочет помочь. В результате оба они оказываются подставленными: их подозревают в совершении тяжкого преступления и из преследователей они превращаются в преследуемых. За ними охотятся представители власти, подручные Беннинга, а, между тем, запас времени, отпущенный им на то, чтобы спасти планету и спасти вместе с ней себя, стремительно тает. На кон поставлены их жизни и зарождающееся между ними чувство, такое хрупкое, кажется, невозможное по определению, но, тем не менее, захватывающее их все сильнее.-
Продолжительность: 26 x ~00:43:00
Качество видео: TVRip
Видеокодек: Xvid
Битрейт видео: ~947Kbps
Размер кадра: 640x352
Аудиокодек: AC3
Битрейт аудио: Русский : 2 ch, 224Kbps, Немецкий: MP3, 2 ch, 128 kbps

MI

Общее
Полное имя : D:\Пароль - Вечность\1x01 Ethaniel's Story [РЕН-ТВ]+[GER].avi
Формат : AVI
Формат/Информация : Audio Video Interleave
Размер файла : 434 Мбайт
Продолжительность : 44 м.
Режим общего битрейта : Переменный
Общий поток : 1349 Кбит/сек
Программа кодирования : VirtualDubMod 1.5.10.3 | www.virtualdub-fr.org || (build 2550/release)
Библиотека кодирования : VirtualDubMod build 2550/release
Видео
Идентификатор : 0
Формат : MPEG-4 Visual
Профиль формата : Advanced Simple@L5
Параметр BVOP формата : Нет
Параметр QPel формата : Нет
Параметр GMC формата : Без точки перехода
Параметр матрицы формата : Default (H.263)
Идентификатор кодека : XVID
Идентификатор кодека/Подсказка : XviD
Продолжительность : 44 м.
Битрейт : 948 Кбит/сек
Ширина : 640 пикселей
Высота : 352 пикселя
Соотношение сторон : 16:9
Частота кадров : 25,000 кадров/сек
Цветовое пространство : YUV
Субдискретизация насыщенности : 4:2:0
Битовая глубина : 8 бит
Тип развёртки : Прогрессивная
Метод сжатия : С потерями
Бит/(Пиксели*Кадры) : 0.168
Размер потока : 305 Мбайт (70%)
Библиотека кодирования : XviD 1.2.0SMP (UTC 2006-01-08)
Аудио #1
Идентификатор : 1
Формат : AC-3
Формат/Информация : Audio Coding 3
Расширение режима : CM (complete main)
Параметр Endianness формата : Big
Идентификатор кодека : 2000
Продолжительность : 44 м.
Вид битрейта : Постоянный
Битрейт : 256 Кбит/сек
Каналы : 2 канала
Расположение каналов : Front: L R
Частота : 48,0 КГц
Битовая глубина : 16 бит
Метод сжатия : С потерями
Размер потока : 82,4 Мбайт (19%)
Выравнивание : Разделение по промежуткам
Продолжительность промежутка : 40 мс. (1,00 видеокадр)
Время предзагрузки промежутка : 500 мс.
Аудио #2
Идентификатор : 2
Формат : MPEG Audio
Версия формата : Version 1
Профиль формата : Layer 3
Режим : Joint stereo
Расширение режима : MS Stereo
Идентификатор кодека : 55
Идентификатор кодека/Подсказка : MP3
Продолжительность : 44 м.
Вид битрейта : Переменный
Битрейт : 128 Кбит/сек
Каналы : 2 канала
Частота : 48,0 КГц
Метод сжатия : С потерями
Размер потока : 40,9 Мбайт (9%)
Выравнивание : Соединение по промежуткам
Продолжительность промежутка : 24 мс. (0,60 видеокадр)
Время предзагрузки промежутка : 513 мс.
Библиотека кодирования : LAME3.90.
Настройки программы : -m j -V 4 -q 2 -lowpass 17.6 --abr 128
Скриншоты:
--Время раздачи: 24/7
[Профиль] [ЛС]
Кто просматривает тему:

Показать сообщения:    

Текущее время: Сегодня 10:49

Часовой пояс: GMT



Вы не можете начинать темы
Вы не можете отвечать на сообщения
Вы не можете редактировать свои сообщения
Вы не можете удалять свои сообщения
Вы не можете голосовать в опросах
Вы не можете прикреплять файлы к сообщениям
Вы не можете скачивать файлы