Паровозик Тишка [S01х01-32 из 45] (2012) DVDRip от New-Team | лицензия

 
Автор Сообщение

sergej644 ®

Пол:

Стаж: 4 года 11 месяцев

Сообщений: 6043

Откуда: Soviet Union



Награды: Нет

Торрент-статистика

Создавать темы 06-Ноя-2014 08:45

[Цитировать]

Страна: Россия
Год выпуска: 2012
Жанр: мультфильм, короткометражка, комедия
Продолжительность: ~ 5 минут / серия
Субтитры: нет
Оригинальная аудиодорожка: русский
Озвучивал: Даниил Эльдаров
Режиссер: Денис Червяцов, Святослав Ушаков, Алексей Котеночкин
Описание: В далеком красочном городе обитают самые настоящие живые паровозы. Кроме взрослых составов, ежедневно уезжающих на работу, есть и самые маленькие, среди которых наши главные герои — паровозик Тишка и его друзья. С ними вечно случается что-то забавное, вместе узнают, стоит ли верить в чудеса, что важнее, победа или дружба и нужно ли бояться пробовать что-то новое.- -Качество: DVDRip (DVD5 R5 - лицензионные диски от СР Дистрибуция)
Формат: AVI
Видео: 720x400 (16:9), 25.000 fps, XViD ~ 1800 kbps avg, 0.250 bit/pixel
Аудио: 48 kHz, АС3 2 ch, 192 kbps, русский
Пояснение: Данная раздача задумывалась и осуществлялась не по сезонам и эпизодам сериала, обозначенным в Кинопоиске, а по DVD дискам, выпущенным в России. Под спойлером "Серии" приведен список серий с указанием принадлежности конкретной серии к сезону и эпизоду в сезоне по версии Кинопоиска, если это достоверно известно.
Релиз от:

Серии

Выпуск 1: Чего боится страх.
01. Сон / s1.30
02. Дерево желаний / s1.30
03. Чего боится страх / s1.31
04. Лучший подарок / s1.32
05. Поэзия / s1.34
06. Кто быстрее / s1.35
07. Клякса / s1.38
08. Букет для Эльки / s1.37
Выпуск 2: Самый лучший цирк.
01. Василич не хочет дружить / s1.36
02. Секреты от друзей / s1.40
03. Самый лучший цирк / s1.43
04. Команда / s1.42
Выпуск 3: Разрушители мифов.
01. Невезучий день / s1.39
02. Разрушители мифов / s1.41
03. Невезуха / s1.45
04. Кино / s1.44
Выпуск 4: День без родителей.
01. Женский день (8 марта) / s1.27
02. Лучший помощник / s1.02
03. День без родителей / s1.23
04. Дикая дрезина / s1.22
05. Бесстрашный герой / ???
06. Компас / s1.16
07. Фестиваль фонариков / s1.19
08. Музыкальный талант / s1.07
09. Жизнь в розовом цвете / s1.29
10. Новая высота / ???

Внимание! Раздача ведётся путём добавления новых серий

Внимание! Раздача ведётся путём добавления новых серий; при каждом добавлении создаётся новый торрент-файл. Чтобы начать докачку новой серии, пользователям необходимо сделать следующее:
(1) остановить скачивание;
(2) удалить старый торрент-файл у себя из клиента (старые серии удалять не надо);
(3) скачать новый торрент-файл и запустить его у себя в клиенте вместо старого, при этом указать клиенту путь в старую папку куда и должно происходить скачивание новых серий.
Ваш клиент при этом должен произвести хеширование (проверку) старой папки (если он не производит проверку сам – помогите ему сделать это), и будет докачивать только те серии которых у вас ещё нет. Старые серии при этом не удаляются, а продолжают раздаваться!
Если вы уже удалили старые серии, то предотвратить повторную закачку старых серий можно, отжав галочку в соответствующих местах при запуске нового торрент-файла. Желательно старые серии не удалять как можно дольше, чтобы релизёр не столько продолжал раздавать старые серии, а смог сконцентрироваться на новых.

MediaInfo

Общее
Полное имя : Parovozik.Tishka.2012.O.DVDRip�1.Chego.boitsya.strah�1.avi
Формат : AVI
Формат/Информация : Audio Video Interleave
Размер файла : 87,2 Мбайт
Продолжительность : 5 м. 32 с.
Общий поток : 2200 Кбит/сек
Программа кодирования : VirtualDubMod 1.5.10.3 | www.virtualdub-fr.org || (build 2550/release)
Библиотека кодирования : VirtualDubMod build 2550/release
Видео
Идентификатор : 0
Формат : MPEG-4 Visual
Профиль формата : Advanced Simple@L5
Параметр BVOP формата : 1
Параметр QPel формата : Нет
Параметр GMC формата : Без точки перехода
Параметр матрицы формата : Выборочная
Идентификатор кодека : XVID
Идентификатор кодека/Подсказка : XviD
Продолжительность : 5 м. 32 с.
Битрейт : 1998 Кбит/сек
Ширина : 720 пикселей
Высота : 400 пикселей
Соотношение сторон : 16:9
Частота кадров : 25,000 кадров/сек
Цветовое пространство : YUV
Субдискретизация насыщенности : 4:2:0
Битовая глубина : 8 бит
Тип развёртки : Прогрессивная
Метод сжатия : С потерями
Бит/(Пиксели*Кадры) : 0.277
Размер потока : 79,2 Мбайт (91%)
Библиотека кодирования : XviD 65
Аудио
Идентификатор : 1
Формат : AC-3
Формат/Информация : Audio Coding 3
Расширение режима : CM (complete main)
Параметр Endianness формата : Big
Идентификатор кодека : 2000
Продолжительность : 5 м. 32 с.
Вид битрейта : Постоянный
Битрейт : 192 Кбит/сек
Каналы : 2 канала
Расположение каналов : Front: L R
Частота : 48,0 КГц
Битовая глубина : 16 бит
Метод сжатия : С потерями
Размер потока : 7,60 Мбайт (9%)
Выравнивание : Разделение по промежуткам
Продолжительность промежутка : 40 мс. (1,00 видеокадр)
Время предзагрузки промежутка : 500 мс.

Скриншоты:

--
[Профиль] [ЛС]
Кто просматривает тему:

Форум Тема Автор Размер
Фильмы (DVD 5/9) Ангелочек, сделай радость (Усман Сапаров) [1993, Россия, Туркмения, Драма, DVD5] Rus + Hardsub (En) TorrentFilm 3.73 GB
R.G.TorrentFilm Video Комната / Room (Леонард Абрахамсон / Lenny Abrahamson) [2015, Ирландия, Канада, Драма, DVDScreener] MVO (Паровоз Продакшн) Один 777 745 MB
R.G.TorrentFilm Video Прогулка по лесам / A Walk in the Woods (Кен Куопис / Ken Kwapis) [2015 г., Драма, комедия, приключения, биография, HDRip] MVO (Паровоз Продакшн) Один 777 764 MB
Фильмы 2015 года Трамбо / Trumbo (Джей Роуч / Jay Roach) [2015, США, драма, биография, DVDScr] DVO (Паровоз Продакшн) TorrentFilm 1.65 GB
R.G.TorrentFilm Video Утешение / Solace (Афонсо Пойарт / Afonso Poyart) [2015, США, Триллер, детектив, HDRip] DVO (Паровоз Продакшн) Один 777 1.45 GB
Фильмы 2015 года Утешение / Экстрасенсы / Solace (Афонсо Пойарт / Afonso Poyart) [2015, США, Триллер, детектив, HDRip] DVO (Паровоз Продакшн) + MVO (ProSound) TorrentFilm 1.38 GB
Зарубежные мультсериалы Чаггингтон: Веселые паровозики / Chuggington [S01-05: 01-164 из ?] (2008-2015) DVDRip, BDRip от New-Team | D | лицензия достали все 20.43 GB
Кино СССР Шестой (Самвел Гаспаров) [1981, боевик, DVDRip] от New-Team sergej644 1.46 GB
Показать сообщения:    

Текущее время: Сегодня 18:37

Часовой пояс: GMT



Вы не можете начинать темы
Вы не можете отвечать на сообщения
Вы не можете редактировать свои сообщения
Вы не можете удалять свои сообщения
Вы не можете голосовать в опросах
Вы не можете прикреплять файлы к сообщениям
Вы не можете скачивать файлы