Парни из Джерси / Jersey Boys (Клинт Иствуд / Clint Eastwood) [2014, США, драма, биография, музыка, BDRip-AVC] MVO + Sub Eng + Original Eng

 
Автор Сообщение

TorrentFilm ®

Пол:

Стаж: 2 года

Сообщений: 7741



Награды: Нет

Торрент-статистика

Создавать темы 08-Янв-2015 00:15

[Цитировать]

Парни из Джерси / Jersey Boys
Страна: США
Жанр: драма, биография, музыка
Год выпуска: 2014
Продолжительность: 02:14:17
Перевод: Профессиональный (многоголосый закадровый)
Cубтитры: английские
Оригинальная аудиодорожка: английский
Режиссер: Клинт Иствуд / Clint Eastwood
В ролях: Джон Ллойд Янг, Эрих Берген, Майкл Ломенда, Винсент Пьяцца, Кристофер Уокен, Стив Ширрипа, Кэтрин Нардуччи, Лу Волп, Джонни Канниццаро, Майкл Патрик МакГилл
Описание: Фильм является биографией группы The Four Seasons. Он рассказывает об их развитии, о пережитых личных столкновениях и трудных временах, и окончательном триумфе группы друзей, чья музыка стала символом целого поколения.


Сэмпл: http://multi-up.com/1024964
Сравнение скриншотовhttp://screenshotcomparison.com/comparison/107954
Ссылка на релиз для сравненияhttp://torrentfilm.net/forum/viewtopic.php?t=4874347
Качество видео: BDRip-AVC
Исходник:[Blu-bits] Jersey.Boys.2014.Blu-ray.1080p.AVC.ReMuX.DTS-HDMA.5.1-PriMeHD/ScroogeMcDuck
Формат видео: MKV
Видео: h264;1056x442;Aspect Ratio: 12:5(2.40:1);1642kbps;23.976fps
Аудио: AC3;Sample Rate:48000Hz;Channel:2(stereo);192kbps
Аудио 2: AC3;Sample Rate:48000Hz;Channel:6(5.1);448kbps
Формат субтитров: softsub (SRT)

MediaInfo

General
Unique ID : 210792847609966230028249932358307441727 (0x9E9539C94680E1C0BFB1B13F5B7A6C3F)
Complete name : I:\Рипы\Jersey Boys (2014)\Dropbox\Jersey.Boys.mkv
Format : Matroska
Format version : Version 4 / Version 2
File size : 2.18 GiB
Duration : 2h 14mn
Overall bit rate : 2 329 Kbps
Encoded date : UTC 2015-01-05 20:50:08
Writing application : mkvmerge v6.1.0 ('Old Devil') built on Mar 4 2013 09:10:42
Writing library : libebml v1.3.0 + libmatroska v1.4.0
Video
ID : 1
Format : AVC
Format/Info : Advanced Video Codec
Format profile : High@L4.1
Format settings, CABAC : Yes
Format settings, ReFrames : 8 frames
Codec ID : V_MPEG4/ISO/AVC
Duration : 2h 14mn
Bit rate : 1 642 Kbps
Width : 1 056 pixels
Height : 442 pixels
Display aspect ratio : 2.40:1
Frame rate mode : Constant
Frame rate : 23.976 fps
Color space : YUV
Chroma subsampling : 4:2:0
Bit depth : 8 bits
Scan type : Progressive
Bits/(Pixel*Frame) : 0.147
Stream size : 1.54 GiB (71%)
Writing library : x264 core 142 Рип от KinoCollection
Encoding settings : cabac=1 / ref=8 / deblock=1:-3:-3 / analyse=0x3:0x113 / me=umh / subme=11 / psy=1 / fade_compensate=0.00 / psy_rd=1.00:0.10 / mixed_ref=1 / me_range=32 / chroma_me=1 / trellis=2 / 8x8dct=1 / cqm=0 / deadzone=21,11 / fast_pskip=0 / chroma_qp_offset=-3 / threads=6 / lookahead_threads=1 / sliced_threads=0 / nr=0 / decimate=1 / interlaced=0 / bluray_compat=0 / constrained_intra=0 / fgo=0 / bframes=16 / b_pyramid=2 / b_adapt=2 / b_bias=0 / direct=1 / weightb=1 / open_gop=1 / weightp=2 / keyint=240 / keyint_min=23 / scenecut=40 / intra_refresh=0 / rc_lookahead=50 / rc=crf / mbtree=1 / crf=16.6380 / qcomp=0.60 / qpmin=0 / qpmax=69 / qpstep=4 / ip_ratio=1.40 / aq=1:1.00
Language : English
Default : Yes
Forced : No
Audio #1
ID : 2
Format : AC-3
Format/Info : Audio Coding 3
Mode extension : CM (complete main)
Format settings, Endianness : Big
Codec ID : A_AC3
Duration : 2h 14mn
Bit rate mode : Constant
Bit rate : 192 Kbps
Channel(s) : 2 channels
Channel positions : Front: L R
Sampling rate : 48.0 KHz
Bit depth : 16 bits
Compression mode : Lossy
Stream size : 184 MiB (8%)
Default : Yes
Forced : No
Audio #2
ID : 3
Format : AC-3
Format/Info : Audio Coding 3
Mode extension : CM (complete main)
Format settings, Endianness : Big
Codec ID : A_AC3
Duration : 2h 14mn
Bit rate mode : Constant
Bit rate : 448 Kbps
Channel(s) : 6 channels
Channel positions : Front: L C R, Side: L R, LFE
Sampling rate : 48.0 KHz
Bit depth : 16 bits
Compression mode : Lossy
Stream size : 430 MiB (19%)
Language : English
Default : No
Forced : No
Text
ID : 4
Format : UTF-8
Codec ID : S_TEXT/UTF8
Codec ID/Info : UTF-8 Plain Text
Language : English
Default : No
Forced : No
Menu
00:00:00.000 : Chapter 01
00:10:48.356 : Chapter 02
00:20:27.226 : Chapter 03
00:29:57.086 : Chapter 04
00:40:44.275 : Chapter 05
00:50:24.771 : Chapter 06
01:01:46.619 : Chapter 07
01:09:09.728 : Chapter 08
01:19:12.914 : Chapter 09
01:27:32.830 : Chapter 10
01:39:07.191 : Chapter 11
01:49:49.249 : Chapter 12
02:00:12.705 : Chapter 13
02:06:16.569 : Chapter 14

Скриншот c названием фильма

Скриншоты

[Профиль] [ЛС]
Показать сообщения:    

Текущее время: Сегодня 10:34

Часовой пояс: GMT



Вы не можете начинать темы
Вы не можете отвечать на сообщения
Вы не можете редактировать свои сообщения
Вы не можете удалять свои сообщения
Вы не можете голосовать в опросах
Вы не можете прикреплять файлы к сообщениям
Вы не можете скачивать файлы