Парк Юрского периода 2: Затерянный мир / The Lost World: Jurassic Park (Стивен Спилберг) [1997 г., фантастика, боевик, приключения, BDRip-AVC] [MVO (Пифагор)]

 
Автор Сообщение

Bathory ®

Пол:

Стаж: 1 год 7 месяцев

Сообщений: 318



Награды: 3 (Подробнее)

Girls (Количество: 1) Друг (Количество: 1) За внесенный вклад в развитие сайта (Количество: 1)
Торрент-статистика

Создавать темы 27-Июл-2017 16:30

[Цитировать]

Парк Юрского периода 2: Затерянный мир / The Lost World: Jurassic Park- Информация о фильме
Название: Парк Юрского периода 2: Затерянный мир
Оригинальное название: The Lost World: Jurassic Park
Год выхода: 1997
Жанр: фантастика, боевик, приключения
Режиссер: Стивен Спилберг
В ролях: Джефф Голдблюм, Джулианна Мур, Пит Постлетуэйт, Ричард Аттенборо, Винс Вон, Арлисс Ховард, Ванесса Ли Честер, Петер Стормаре, Харви Джейсон
О фильме:
События этого фильма разворачиваются через четыре года после того, что произошло в «Парке Юрского периода». На близлежащем острове динозавры выжили и адаптировались к дикой природе. Но вот находится Некто, кто хочет перевезти их на материк и заработать на этом, не понимая, какими могут быть последствия, и посылает на остров своих людей.
Джон Хэммонд, который потерял контроль над своей компанией, считает, что у него появился шанс исправить свои прошлые ошибки. Он, в свою очередь, снаряжает экспедицию во главе с Яном Малкольмом, чтобы появиться там до высадки наемников.
В результате происходящих событий две эти конфликтующие группы вынуждены объединиться перед лицом смертельной опасности. И, как потом выясняется, времени им отпущено совсем немного.

Страна: США
Студия: Universal Pictures, Amblin Entertainment, Digital Image Associates
Продолжительность: 02:08:46
Перевод: Профессиональный (многоголосый закадровый) [Пифагор]
Файл
Кодек: AVC
Качество: BDRip-AVC
Видео: 720x392, 745 kbps, 23,976 fps, 0,110 Bits/(Pixel*Frame)
Звук: AAC, 48 kHz, 2 ch, 72 kbps
Субтитры: русские, английские

MI

Общее
Unique ID : 198824237999134539879882648811928954112 (0x959427C5E2D111F9BC72015F59AE2500)
Complete name : E:\Jurassic.Park.2.1997.BDRip-AVC.MegaPeer.mkv
Format : Matroska
Format version : Version 4 / Version 2
File size : 747 Мбайт
Duration : 2 ч. 8 м.
Overall bit rate : 811 Кбит/сек
Encoded date : UTC 2017-07-27 15:40:18
Writing application : mkvmerge v13.0.0 ('The Juggler') 64bit
Writing library : libebml v1.3.4 + libmatroska v1.4.5
Видео
ID : 1
Format : AVC
Format/Info : Advanced Video Codec
Format profile : High@L4.1
Format settings, CABAC : Да
Format settings, ReFrames : 10 кадров
Codec ID : V_MPEG4/ISO/AVC
Duration : 2 ч. 8 м.
Bit rate : 745 Кбит/сек
Width : 720 пикселей
Height : 392 пикселя
Display aspect ratio : 1,85:1
Frame rate mode : Постоянный
Frame rate : 23,976 (23976/1000) кадра/сек
Original frame rate : 23,976 (24000/1001) кадра/сек
Color space : YUV
Chroma subsampling : 4:2:0
Bit depth : 8 бит
Scan type : Прогрессивная
Bits/(Pixel*Frame) : 0.110
Stream size : 686 Мбайт (92%)
Writing library : x264 core 148 r2744 b97ae06
Encoding settings : cabac=1 / ref=10 / deblock=1:-3:-3 / analyse=0x3:0x133 / me=umh / subme=11 / psy=1 / psy_rd=1.00:0.10 / mixed_ref=1 / me_range=32 / chroma_me=1 / trellis=2 / 8x8dct=1 / cqm=0 / deadzone=21,11 / fast_pskip=0 / chroma_qp_offset=-3 / threads=12 / lookahead_threads=3 / sliced_threads=0 / nr=0 / decimate=1 / interlaced=0 / bluray_compat=0 / constrained_intra=0 / bframes=12 / b_pyramid=2 / b_adapt=2 / b_bias=0 / direct=3 / weightb=1 / open_gop=0 / weightp=2 / keyint=240 / keyint_min=23 / scenecut=40 / intra_refresh=0 / rc_lookahead=60 / rc=2pass / mbtree=1 / bitrate=745 / ratetol=1.0 / qcomp=0.60 / qpmin=0 / qpmax=69 / qpstep=4 / cplxblur=20.0 / qblur=0.5 / ip_ratio=1.40 / aq=1:1.00
Default : Да
Forced : Нет
Аудио
ID : 2
Format : AAC
Format/Info : Advanced Audio Codec
Format profile : HE-AAC / LC
Codec ID : A_AAC
Duration : 2 ч. 8 м.
Bit rate : 64,0 Кбит/сек
Channel(s) : 2 канала
Channel positions : Front: L R
Sampling rate : 48,0 КГц / 24,0 КГц
Frame rate : 23,438 кадра/сек (1024 spf)
Compression mode : С потерями
Stream size : 58,9 Мбайт (8%)
Language : Russian
Default : Да
Forced : Нет
Текст #1
ID : 3
Format : UTF-8
Codec ID : S_TEXT/UTF8
Codec ID/Info : UTF-8 Plain Text
Duration : 2 ч. 1 м.
Bit rate : 94 бит/сек
Count of elements : 1487
Stream size : 84,1 Кбайт (0%)
Language : Russian
Default : Нет
Forced : Нет
Текст #2
ID : 4
Format : UTF-8
Codec ID : S_TEXT/UTF8
Codec ID/Info : UTF-8 Plain Text
Duration : 2 ч. 1 м.
Bit rate : 51 бит/сек
Count of elements : 1433
Stream size : 45,5 Кбайт (0%)
Language : English
Default : Нет
Forced : Нет

Скриншоты

Релиз:
[Профиль] [ЛС]
Кто просматривает тему:

Показать сообщения:    

Текущее время: Сегодня 02:56

Часовой пояс: GMT



Вы не можете начинать темы
Вы не можете отвечать на сообщения
Вы не можете редактировать свои сообщения
Вы не можете удалять свои сообщения
Вы не можете голосовать в опросах
Вы не можете прикреплять файлы к сообщениям
Вы не можете скачивать файлы