Парки Москвы. Битцевский лес (RTGHD) [2014, Документальный, HDTV 1080i]

 
Автор Сообщение

TorrentFilm ®

Пол:

Стаж: 2 года

Сообщений: 7741



Награды: Нет

Торрент-статистика

Создавать темы 14-Фев-2015 00:00

[Цитировать]

Парки Москвы. Битцевский лес (RTGHD)
Год выпуска: 2014
Страна: Россия
Студия: RTG
Жанр: Документальный
Продолжительность: 00:12:43
Описание: Битцевский лес — единственный участок типичного для Подмосковья леса который сохранился в городской черте.
Доп. информация: запись со спутника "как есть"
Тип релиза: HDTV 1080i
Контейнер: TS
Видео: AVC, 1920x1080, 25.000 fps, 10.7 Mbps, 0.207 bit/pixel
Аудио: MPEG Audio 160 Кбит/сек 2 channels 48.0 KHz

MediaInfo

Format : MPEG-TS File size : 1.02 GiB Duration : 12mn 43s Overall bit rate : 11.5 Mbps Network name : Orion Express 2 Original network name : Astra Satellite Network 19,2'E Video #3206 ID : 3206 (0xC86) Menu ID : 1206 (0x4B6) Format : AVC Format/Info : Advanced Video Codec Format profile : High@L4.0 Format settings, CABAC : Yes Format settings, ReFrames : 3 frames Codec ID : 27 Duration : 12mn 43s Bit rate : 10.7 Mbps Width : 1 920 pixels Height : 1 080 pixels Display aspect ratio : 16:9 Frame rate : 25.000 fps Standard : Component Color space : YUV Chroma subsampling : 4:2:0 Bit depth : 8 bits Scan type : Interlaced Scan order : Top Field First Bits/(Pixel*Frame) : 0.207 Stream size : 978 MiB (94%) Color primaries : BT.709-5, BT.1361, IEC 61966-2-4, SMPTE RP177 Transfer characteristics : BT.709-5, BT.1361 Matrix coefficients : BT.709-5, BT.1361, IEC 61966-2-4 709, SMPTE RP177 Audio #4206 ID : 4206 (0x106E) Menu ID : 1206 (0x4B6) Format : MPEG Audio Format version : Version 1 Format profile : Layer 2 Codec ID : 4 Duration : 12mn 43s Bit rate mode : Constant Bit rate : 160 Kbps Channel(s) : 2 channels Sampling rate : 48.0 KHz Compression mode : Lossy Delay relative to video : -398ms Stream size : 14.6 MiB (1%) Language : Russian

Скриншоты

[Профиль] [ЛС]
Кто просматривает тему:

Форум Тема Автор Размер
Nat Geo Wild Nat Geo Wild: Национальные парки Америки. Арктические врата / America's National Parks. Gates of the Arctic [сезон 1 серия 4] (Uwe Anders) [2015 г., Документальный, природа, флора, фауна,... skorpionN 1.48 GB
Nat Geo Wild Nat Geo Wild: Национальные парки Америки. Большой каньон / America's National Parks. Grand Canyon [сезон 1 серия 5](Henry M. Mix, Yann Sochaczewski) [2015 г., Документальный, природа, фл... skorpionN 1.53 GB
Nat Geo Wild Nat Geo Wild: Национальные парки Америки. Грейт-Смоки-Маунтинс / America's National Parks. Great Smoky Mountain [сезон 1 серия 8] (Jan Haft) [2015 г., Документальный, природа, флора, фауна,... skorpionN 1.51 GB
Nat Geo Wild Nat Geo Wild: Национальные парки Америки. Йеллоустоун / America's National Parks. Yellowstone [сезон 1 серия 6] (Оливер Гётцль / Oliver Goetzl) [2015 г., Документальный, природа, флора, фауна,... skorpionN 1.54 GB
Nat Geo Wild Nat Geo Wild: Национальные парки Америки. Йосемити / America's National Parks. Yosemite [сезон 1 серия 2] (Оливер Гётцль / Oliver Goetzl) [2015 г., Документальный, природа, флора, фауна,... skorpionN 1.59 GB
Nat Geo Wild Nat Geo Wild: Национальные парки Америки. Олимпик / America's National Parks. Olympic [сезон 1 серия 1] (Florian Graner) [2015 г., Документальный, природа, флора, фауна, HDTVRip 720p] skorpionN 1.54 GB
Nat Geo Wild Nat Geo Wild: Национальные парки Америки. Сагуаро / America's National Parks. Saguaro [сезон 1 серия 7] (Henry M.Mix, Yann Sochaczewski) [2015 г., Документальный, природа, флора, фауна,... skorpionN 1.51 GB
Nat Geo Wild Nat Geo Wild: Национальные парки Америки. Эверглейдс / America's National Parks. Everglades [сезон 1 серия 3] (Zoltán Török) [2015 г., Документальный, природа, флора, фауна, HDTVRip-AVC 720p] skorpionN 1.52 GB
Показать сообщения:    

Текущее время: Сегодня 13:46

Часовой пояс: GMT



Вы не можете начинать темы
Вы не можете отвечать на сообщения
Вы не можете редактировать свои сообщения
Вы не можете удалять свои сообщения
Вы не можете голосовать в опросах
Вы не можете прикреплять файлы к сообщениям
Вы не можете скачивать файлы