Париж. Тайная история / La Vie sauvage à Paris (Paris: A Wild Story) (Фредерик Фужа / Frédéric Fougea) [2016 г., Документальный, фауна, DVB]

 
Автор Сообщение

skorpionN ®

Пол:

Стаж: 2 года 7 месяцев

Сообщений: 833



Награды: 4 (Подробнее)

Mega Seeder 1 (Количество: 1) Mega Seeder 2 (Количество: 1) Top Releaser 2 (Количество: 1)
Торрент-статистика

Создавать темы 27-Июл-2017 10:00

[Цитировать]

Париж. Тайная история / La Vie sauvage à Paris (Paris: A Wild Story)
Год выпуска: 2016
Страна: Франция, Boréales and Winds films
Жанр: Документальный, фауна
Продолжительность: 01:29:41
Перевод: Профессиональный (одноголосый)
Режиссер: Фредерик Фужа / Frédéric Fougea
Описание: Париж знаменит своим искусством, архитектурой, модой и культурой. Но есть у французской столицы и другая сторона, о которой немногие знают
Качество: DVB
Формат: MPEG - TS
Видео кодек: H.264
Аудио кодек: MP3
Видео: 720х576 (4:3) анаморфный (785x576) 25fps ~1941 Kbps
Аудио: MP3 2ch, 48kHz, 192 kbps

Скриншоты


MediaInfo:

Имя файла: Paris A Wild Story.ts
Формат файла: .ts (MPEG-TS)
Размер файла: 1,41 GB (1 510 762 993 bytes)
Длительность: 1h 29mn
Навигация по главам: Нет
Битрейт (все потоки): 2 246 Kbps
Тип битрейта (все потоки): Variable
Обложка: Отсутствует
:
Название: Paris A Wild Story
:
Тип потока: Видео
Длительность: 01:29:40
Кодек: AVC
Кодек/описание: Advanced Video Codec
Кодек/профиль: High@L3.0
Кодек/ID: 27
Кодек/CABAC: Yes
Кодек/ReFrames: 4 frames
Размеры изображения: 720 x 576 (4:3)
Частота кадров: 25.000 fps
Размер потока: 1.22 GiB (86%)
Битрейт: 1 941 Kbps
Стандарт: Component
Цветовое пространство: YUV
Тип развёртки: Interlaced
Колориметрия: 4:2:0
Глубина: 8 bits
:
Тип потока: Звук #1
Язык: Russian
Длительность: 01:29:40.800
Кодек: MPEG Audio
Кодек/профиль: Layer 2
Кодек/ID: 3
Частота дискретизации: 48.0 KHz
Каналов: 2 channels
Битрейт: 192 Kbps
Битрейт/тип: Constant
Размер потока: 123 MiB (9%)
Метод сжатия: Lossy
[Профиль] [ЛС]
Кто просматривает тему:

Форум Тема Автор Размер
Viasat History Viasat History: Париж и Берлин: путешествие сквозь время / Paris-Berlin: Shapes and Shades of History[серии 1-4 из 4] (Frédéric Wilner) [2015 г., Документальный, история, архитектура, SATRip] skorpionN 2.95 GB
Фильмы (HD Rips | 720p, 1080p) Американец в Париже / An American in Paris (1951) BDRip 720p от HDClub | P Russian Mafia 6.54 GB
Фильмы до 2000 года Американский оборотень в Париже / An American werewolf in Paris (Энтони Уоллер) [1997 г., ужасы, фэнтези, триллер, мелодрама, комедия, DVDRip-AVC] [AVO (Сербин)] Bathory 744 MB
Мировая классика Золя Эмиль - Чрево Парижа [Третьякова Лариса, 2014] Magnat 715 MB
Фильмы 2014 года Красотки в Париже / Sous les jupes des filles (Одри Дана / Audrey Dana) [2014 г., Франция, комедия, BDRip] MVO TorrentFilm 1.45 GB
Фильмы (HD DVD, Blu-ray и BDRemux) Кухня в Париже (Дмитрий Дьяченко (II))[2014, Комедия, BDRemux] 1080р sergej644 19.89 GB
Фильмы (HD Rips | 720p, 1080p) Кухня в Париже (Дмитрий Дьяченко) [2014, Россия, комедия, BDRip 1080p] - Original Rus - TorrentFilm 8.5 GB
Фильмы (HD Rips | 720p, 1080p) Кухня в Париже (Дмитрий Дьяченко) [2014, Россия, комедия, Blu-ray Disc 1080p] TorrentFilm 20.5 GB
Показать сообщения:    

Текущее время: Сегодня 19:08

Часовой пояс: GMT



Вы не можете начинать темы
Вы не можете отвечать на сообщения
Вы не можете редактировать свои сообщения
Вы не можете удалять свои сообщения
Вы не можете голосовать в опросах
Вы не можете прикреплять файлы к сообщениям
Вы не можете скачивать файлы