Париж любой ценой / Paris à tout prix (2013) BDRip 720p от MediaClub | D | Лицензия

 
Автор Сообщение

sergej644 ®

Пол:

Стаж: 4 года 11 месяцев

Сообщений: 6043

Откуда: Soviet Union



Награды: Нет

Торрент-статистика

Создавать темы 10-Фев-2015 08:53

[Цитировать]

Информация о фильме
Название: Париж любой ценой
Оригинальное название: Paris à tout prix
Год выхода: 2013
Жанр: Комедия
Режиссер: Рем Кериси
В ролях: Рем Кериси, Сесиль Кассель, Тарек Будали, Филипп Лашо, Ширли Буске, Салим Кешьюш, Стефан Руссо, Жозефин Дрэй, Мохамед Бастауи, Фатима Наджи
О фильме:
Майя, восходящая звезда мира моды в Париже, собирается получить свою первую постоянную работу в знаменитом модном доме. Но как на зло обычная полицейская проверка выявляет, что срок её визы истёк, и её сразу депортируют в Марокко, в страну и семью, которую она хотела забыть. Майе остаётся сделать всё возможное и невозможное, чтобы попасть обратно в Париж..

Страна: Франция / Mandarin Films, Gaumont, Canal+
Продолжительность: 01:33:13
Перевод: Дублированный
Файл
Качество: BDRip 720p
Видео: MPEG-4 AVC, 4019 Кбит/с, 1280x534, 24.000 кадр/с
Аудио #1: Русский (AC3, 6 ch, 384 Кбит/с) / Дублированный (Лицензия)
Аудио #2: Немецкий (DTS, 6 ch, 1509 Кбит/с)
Субтитры: Немецкие
Семпл

MI

x264 [info]: frame I:1239 Avg QP:14.59 size:129707
x264 [info]: frame P:32634 Avg QP:17.27 size: 40954
x264 [info]: frame B:100361 Avg QP:18.71 size: 13035
x264 [info]: consecutive B-frames: 3.0% 3.3% 12.6% 29.3% 19.3% 25.7% 3.7% 1.5% 0.6% 0.4% 0.5%
x264 [info]: mb I I16..4: 11.9% 59.3% 28.9%
x264 [info]: mb P I16..4: 0.9% 15.2% 2.2% P16..4: 28.4% 31.8% 13.7% 2.7% 0.4% skip: 4.8%
x264 [info]: mb B I16..4: 0.1% 2.1% 0.2% B16..8: 30.6% 21.1% 4.3% direct: 6.3% skip:35.2% L0:40.4% L1:41.6% BI:18.0%
x264 [info]: 8x8 transform intra:80.3% inter:55.6%
x264 [info]: direct mvs spatial:98.4% temporal:1.6%
x264 [info]: coded y,uvDC,uvAC intra: 92.2% 91.6% 76.6% inter: 27.5% 24.4% 13.7%
x264 [info]: i16 v,h,dc,p: 15% 7% 14% 65%
x264 [info]: i8 v,h,dc,ddl,ddr,vr,hd,vl,hu: 15% 9% 10% 8% 11% 12% 10% 12% 12%
x264 [info]: i4 v,h,dc,ddl,ddr,vr,hd,vl,hu: 20% 8% 5% 8% 13% 14% 11% 10% 10%
x264 [info]: i8c dc,h,v,p: 45% 19% 20% 16%
x264 [info]: Weighted P-Frames: Y:4.2% UV:2.2%
x264 [info]: ref P L0: 46.2% 11.4% 18.0% 6.2% 5.5% 3.9% 3.7% 2.1% 2.5% 0.4% 0.0%
x264 [info]: ref B L0: 75.6% 11.1% 5.3% 2.7% 2.1% 1.8% 1.0% 0.4%
x264 [info]: ref B L1: 93.6% 6.4%
x264 [info]: kb/s:4012.65
Format : Matroska
Format version : Version 4 / Version 2
File size : 3.85 GiB
Duration : 1h 33mn
Overall bit rate : 5 908 Kbps
Movie name : Encode by Odessit
Encoded date : UTC 2014-09-29 12:46:26
Writing application : mkvmerge v6.8.0 ('Theme for Great Cities') 64bit built on Mar 2 2014 21:34:26
Writing library : libebml v1.3.0 + libmatroska v1.4.1
Video
ID : 1
Format : AVC
Format/Info : Advanced Video Codec
Format profile : High@L4.1
Format settings, CABAC : Yes
Format settings, ReFrames : 9 frames
Codec ID : V_MPEG4/ISO/AVC
Duration : 1h 33mn
Bit rate : 4 019 Kbps
Width : 1 280 pixels
Height : 534 pixels
Display aspect ratio : 2.40:1
Frame rate : 24.000 fps
Color space : YUV
Chroma subsampling : 4:2:0
Bit depth : 8 bits
Scan type : Progressive
Bits/(Pixel*Frame) : 0.245
Stream size : 2.54 GiB (66%)
Writing library : x264 core 142 r2409+42 04be48a tMod [8-bit@all X86_64]
Encoding settings : cabac=1 / ref=9 / deblock=1:-3:-3 / analyse=0x3:0x133 / me=umh / subme=11 / psy=1 / fade_compensate=0.00 / psy_rd=1.05:0.10 / mixed_ref=1 / me_range=48 / chroma_me=1 / trellis=2 / 8x8dct=1 / cqm=0 / deadzone=21,11 / fast_pskip=0 / chroma_qp_offset=-3 / threads=6 / lookahead_threads=1 / sliced_threads=0 / nr=0 / decimate=0 / interlaced=0 / bluray_compat=0 / constrained_intra=0 / fgo=0 / bframes=10 / b_pyramid=2 / b_adapt=2 / b_bias=0 / direct=3 / weightb=1 / open_gop=0 / weightp=2 / keyint=250 / keyint_min=24 / scenecut=40 / intra_refresh=0 / rc=2pass / mbtree=0 / bitrate=4019 / ratetol=1.0 / qcomp=0.70 / qpmin=0:0:0 / qpmax=69:69:69 / qpstep=4 / cplxblur=20.0 / qblur=0.5 / ip_ratio=1.40 / pb_ratio=1.30 / aq=3:0.90 / aq-sensitivity=10.00 / aq-factor=1.00:1.00:1.00 / aq2=0 / aq3=0
Language : English
Audio #1
ID : 2
Format : AC-3
Format/Info : Audio Coding 3
Mode extension : CM (complete main)
Codec ID : A_AC3
Duration : 1h 33mn
Bit rate mode : Constant
Bit rate : 384 Kbps
Channel(s) : 6 channels
Channel positions : Front: L C R, Side: L R, LFE
Sampling rate : 48.0 KHz
Bit depth : 16 bits
Compression mode : Lossy
Stream size : 256 MiB (6%)
Title : Дублированный (Лицензия)
Language : Russian
Audio #2
ID : 3
Format : DTS
Format/Info : Digital Theater Systems
Codec ID : A_DTS
Duration : 1h 33mn
Bit rate mode : Constant
Bit rate : 1 510 Kbps
Channel(s) : 6 channels
Channel positions : Front: L C R, Side: L R, LFE
Sampling rate : 48.0 KHz
Bit depth : 16 bits
Compression mode : Lossy
Stream size : 1 007 MiB (26%)
Language : German
Text
ID : 4
Format : UTF-8
Codec ID : S_TEXT/UTF8
Codec ID/Info : UTF-8 Plain Text
Language : German
Menu
00:00:00.000 : :Chapter 01
00:10:54.583 : :Chapter 02
00:23:41.875 : :Chapter 03
00:34:31.291 : :Chapter 04
00:46:18.458 : :Chapter 05
00:57:16.875 : :Chapter 06
01:08:36.333 : :Chapter 07
01:20:15.416 : :Chapter 08
01:33:13.083 : :Chapter 09

Скриншоты

[Профиль] [ЛС]
Кто просматривает тему:

Форум Тема Автор Размер
Viasat History Viasat History: Париж и Берлин: путешествие сквозь время / Paris-Berlin: Shapes and Shades of History[серии 1-2 из 3] (Frédéric Wilner) [2015 г., Документальный, история, архитектура, SATRip] skorpionN 1.48 GB
Фильмы (HD Rips | 720p, 1080p) Американец в Париже / An American in Paris (1951) BDRip 720p от HDClub | P Russian Mafia 6.54 GB
Мировая классика Золя Эмиль - Чрево Парижа [Третьякова Лариса, 2014] Magnat 715 MB
Фильмы 2014 года Красотки в Париже / Sous les jupes des filles (Одри Дана / Audrey Dana) [2014 г., Франция, комедия, BDRip] MVO TorrentFilm 1.45 GB
Фильмы (HD DVD, Blu-ray и BDRemux) Кухня в Париже (Дмитрий Дьяченко (II))[2014, Комедия, BDRemux] 1080р sergej644 19.89 GB
Фильмы (HD Rips | 720p, 1080p) Кухня в Париже (Дмитрий Дьяченко) [2014, Россия, комедия, BDRip 1080p] - Original Rus - TorrentFilm 8.5 GB
Фильмы (HD Rips | 720p, 1080p) Кухня в Париже (Дмитрий Дьяченко) [2014, Россия, комедия, Blu-ray Disc 1080p] TorrentFilm 20.5 GB
Фильмы (DVD 5/9) Кухня в Париже (Дмитрий Дьяченко) [2014, Россия, комедия, DVD5] R5 Original Rus TorrentFilm 4.13 GB
Показать сообщения:    

Текущее время: Сегодня 18:38

Часовой пояс: GMT



Вы не можете начинать темы
Вы не можете отвечать на сообщения
Вы не можете редактировать свои сообщения
Вы не можете удалять свои сообщения
Вы не можете голосовать в опросах
Вы не можете прикреплять файлы к сообщениям
Вы не можете скачивать файлы