Париж: Город мёртвых / As Above, So Below (Джон Эрик Даудл / John Erick Dowdle) [2014, США, ужасы, триллер, HDRip] Dub

 
Автор Сообщение

TorrentFilm ®

Пол:

Стаж: 2 года

Сообщений: 7741



Награды: Нет

Торрент-статистика

Создавать темы 01-Янв-2015 00:00

[Цитировать]

Париж: Город мёртвых / As Above, So Below

Год выпуска: 2014
Страна: США
Жанр: ужасы, триллер
Продолжительность: 01:33:08
Перевод: Професиональный (полное дублирование) Лицензия
Cубтитры: нет
Режиссер: Джон Эрик Даудл / John Erick Dowdle
В ролях: Пердита Викс, Бен Фельдман, Эдвин Ходж, Франсуа Сивиль, Мэрион Ламберт, Али Мархьяр, Косме Кастро, Хамид Джавадан, Тео Чолби, Эми Леви
Описание: Величие Эйфелевой башни и роскошь бутиков, ароматы изысканной кухни и краски Елисейских полей — это лишь саван, под которым скрывается настоящий Париж. Здесь, в бесконечных катакомбах живут истинные владыки этого мира.
Автор: Scarabey
Качество видео: HDRip (исходник BDRip 720p)
Формат видео: AVI
Видео: 624x336 (1.86:1), 23.976 fps, XviD build 73 ~983 kbps avg, 0.20 bit/pixel
Аудио: 48 kHz, MPEG Layer 3, 2 ch, ~128.00 kbps avg

MediaInfo

General
Complete name : D:\Фильмы\As.Above.So.Below.2014_HDRip_[Scarabey].avi
Format : AVI
Format/Info : Audio Video Interleave
File size : 746 MiB
Duration : 1h 33mn
Overall bit rate : 1 120 Kbps
Writing application : VirtualDubMod 1.5.10.3 | www.virtualdub-fr.org || (build 2550/release)
Writing library : VirtualDubMod build 2550/release
Video
ID : 0
Format : MPEG-4 Visual
Format profile : Advanced Simple@L5
Format settings, BVOP : 1
Format settings, QPel : No
Format settings, GMC : No warppoints
Format settings, Matrix : Custom
Codec ID : XVID
Codec ID/Hint : XviD
Duration : 1h 33mn
Bit rate : 983 Kbps
Width : 624 pixels
Height : 336 pixels
Display aspect ratio : 1.85:1
Frame rate : 23.976 fps
Color space : YUV
Chroma subsampling : 4:2:0
Bit depth : 8 bits
Scan type : Progressive
Compression mode : Lossy
Bits/(Pixel*Frame) : 0.196
Stream size : 655 MiB (88%)
Writing library : XviD 73
Audio
ID : 1
Format : MPEG Audio
Format version : Version 1
Format profile : Layer 3
Codec ID : 55
Codec ID/Hint : MP3
Duration : 1h 33mn
Bit rate mode : Constant
Bit rate : 128 Kbps
Channel(s) : 2 channels
Sampling rate : 48.0 KHz
Compression mode : Lossy
Stream size : 85.2 MiB (11%)
Alignment : Aligned on interleaves
Interleave, duration : 42 ms (1.00 video frame)
Interleave, preload duration : 504 ms
Writing library : LAME3.99r
Encoding settings : -m s -V 4 -q 2 -lowpass 17 -b 128

Скриншот с названием фильма

Скриншоты

[Профиль] [ЛС]
Кто просматривает тему:

Форум Тема Автор Размер
Viasat History Viasat History: Париж и Берлин: путешествие сквозь время / Paris-Berlin: Shapes and Shades of History[серии 1-3 из 3] (Frédéric Wilner) [2015 г., Документальный, история, архитектура, SATRip] skorpionN 2.21 GB
Фильмы (HD Rips | 720p, 1080p) Американец в Париже / An American in Paris (1951) BDRip 720p от HDClub | P Russian Mafia 6.54 GB
Мировая классика Золя Эмиль - Чрево Парижа [Третьякова Лариса, 2014] Magnat 715 MB
Фильмы 2014 года Красотки в Париже / Sous les jupes des filles (Одри Дана / Audrey Dana) [2014 г., Франция, комедия, BDRip] MVO TorrentFilm 1.45 GB
Фильмы (HD DVD, Blu-ray и BDRemux) Кухня в Париже (Дмитрий Дьяченко (II))[2014, Комедия, BDRemux] 1080р sergej644 19.89 GB
Фильмы (HD Rips | 720p, 1080p) Кухня в Париже (Дмитрий Дьяченко) [2014, Россия, комедия, BDRip 1080p] - Original Rus - TorrentFilm 8.5 GB
Фильмы (HD Rips | 720p, 1080p) Кухня в Париже (Дмитрий Дьяченко) [2014, Россия, комедия, Blu-ray Disc 1080p] TorrentFilm 20.5 GB
Фильмы (DVD 5/9) Кухня в Париже (Дмитрий Дьяченко) [2014, Россия, комедия, DVD5] R5 Original Rus TorrentFilm 4.13 GB
Показать сообщения:    

Текущее время: Сегодня 12:11

Часовой пояс: GMT



Вы не можете начинать темы
Вы не можете отвечать на сообщения
Вы не можете редактировать свои сообщения
Вы не можете удалять свои сообщения
Вы не можете голосовать в опросах
Вы не можете прикреплять файлы к сообщениям
Вы не можете скачивать файлы