Париж: Город мёртвых / As Above, So Below (Джон Эрик Даудл / John Erick Dowdle) [2014, США, ужасы, триллер, BDRip] Dub + Original Eng + sub (rus, eng)

 
Автор Сообщение

TorrentFilm ®

Пол:

Стаж: 2 года

Сообщений: 7741



Награды: Нет

Торрент-статистика

Создавать темы 28-Дек-2014 00:30

[Цитировать]

Париж: Город мёртвых / As Above, So Below
Страна: США
Жанр: ужасы, триллер
Год выпуска: 2014
Продолжительность: 01:33:08
Перевод: Профессиональный (дублированный) СЕЕ
Cубтитры: русские (полные, форсированные), английские (полные, SDH), украинские
Оригинальная аудиодорожка: английский (отдельно)
Режиссер: Джон Эрик Даудл / John Erick Dowdle
В ролях: Пердита Викс, Бен Фельдман, Эдвин Ходж, Франсуа Сивиль, Мэрион Ламберт, Али Мархьяр, Косме Кастро, Хамид Джавадан, Тео Чолби, Эми Леви
Описание: Величие Эйфелевой башни и роскошь бутиков, ароматы изысканной кухни и краски Елисейских полей — это лишь саван, под которым скрывается настоящий Париж. Здесь, в бесконечных катакомбах живут истинные владыки этого мира.
Заблудшая душа, добро пожаловать в Город мертвых…

Релиз:
Автор: sociolog_melvas
Сэмпл: http://multi-up.com/1020565
Качество видео: BDRip (источник: HDClub / Blu-ray / 1080р)
Формат видео: AVI
Видео: 704x384 (1.83:1), 23,976 fps, XviD build 65 ~1777 kbps avg, 0.27 bit/pixel
Аудио: 48 kHz, AC3 Dolby Digital, 3/2 (L,C,R,l,r) + LFE ch, ~448 kbps avg
Аудио 2: 48 kHz, AC3 Dolby Digital, 3/2 (L,C,R,l,r) + LFE ch, ~448 kbps avg (ENG) (отдельно)
Формат субтитров: softsub (SRT)

MediaInfo

Format : AVI
Format/Info : Audio Video Interleave
File size : 1.45 GiB
Duration : 1h 33mn
Overall bit rate : 2 235 Kbps
Writing application : VirtualDubMod 1.5.10.2 (build 2540/release)
Video
ID : 0
Format : MPEG-4 Visual
Format profile : Advanced Simple@L5
Format settings, BVOP : Yes
Format settings, QPel : No
Format settings, GMC : No warppoints
Format settings, Matrix : Custom
Codec ID : XVID
Codec ID/Hint : XviD
Duration : 1h 33mn
Bit rate : 1 777 Kbps
Width : 704 pixels
Height : 384 pixels
Display aspect ratio : 16:9
Frame rate : 23.976 fps
Resolution : 8 bits
Colorimetry : 4:2:0
Scan type : Progressive
Bits/(Pixel*Frame) : 0.274
Stream size : 1.15 GiB (80%)
Writing library : XviD 65
Audio
ID : 1
Format : AC-3
Format/Info : Audio Coding 3
Codec ID : 2000
Duration : 1h 33mn
Bit rate mode : Constant
Bit rate : 448 Kbps
Channel(s) : 6 channels
Channel positions : Front: L C R, Surround: L R, LFE
Sampling rate : 48.0 KHz
Stream size : 298 MiB (20%)
Alignment : Split accross interleaves
Interleave, duration : 42 ms (1.00 video frame)
Interleave, preload duration : 500 ms

Скриншот c названием фильма

Скриншоты

Сравнение

С этим http://torrentfilm.net/forum/viewtopic.php?t=4886245 вот здесь http://screenshotcomparison.com/comparison/104413/picture:0
+ обе дороги в 448;
+ дубляж с BD CEE;
+ полный пак субтитров
[Профиль] [ЛС]
Кто просматривает тему:

Форум Тема Автор Размер
Viasat History Viasat History: Париж и Берлин: путешествие сквозь время / Paris-Berlin: Shapes and Shades of History[серии 1-2 из 3] (Frédéric Wilner) [2015 г., Документальный, история, архитектура, SATRip] skorpionN 1.48 GB
Фильмы (HD Rips | 720p, 1080p) Американец в Париже / An American in Paris (1951) BDRip 720p от HDClub | P Russian Mafia 6.54 GB
Мировая классика Золя Эмиль - Чрево Парижа [Третьякова Лариса, 2014] Magnat 715 MB
Фильмы 2014 года Красотки в Париже / Sous les jupes des filles (Одри Дана / Audrey Dana) [2014 г., Франция, комедия, BDRip] MVO TorrentFilm 1.45 GB
Фильмы (HD DVD, Blu-ray и BDRemux) Кухня в Париже (Дмитрий Дьяченко (II))[2014, Комедия, BDRemux] 1080р sergej644 19.89 GB
Фильмы (HD Rips | 720p, 1080p) Кухня в Париже (Дмитрий Дьяченко) [2014, Россия, комедия, BDRip 1080p] - Original Rus - TorrentFilm 8.5 GB
Фильмы (HD Rips | 720p, 1080p) Кухня в Париже (Дмитрий Дьяченко) [2014, Россия, комедия, Blu-ray Disc 1080p] TorrentFilm 20.5 GB
Фильмы (DVD 5/9) Кухня в Париже (Дмитрий Дьяченко) [2014, Россия, комедия, DVD5] R5 Original Rus TorrentFilm 4.13 GB
Показать сообщения:    

Текущее время: Сегодня 05:19

Часовой пояс: GMT



Вы не можете начинать темы
Вы не можете отвечать на сообщения
Вы не можете редактировать свои сообщения
Вы не можете удалять свои сообщения
Вы не можете голосовать в опросах
Вы не можете прикреплять файлы к сообщениям
Вы не можете скачивать файлы