Параллели / Parallels (Кристофер Леоне) [2015, Фантастика, боевик, приключения] WEBDLRip | L2 от ColdFilm

 
Автор Сообщение

достали все ®

Пол:

Стаж: 1 год 8 месяцев

Сообщений: 6571



Награды: 12 (Подробнее)

Mega Releaser 1 (Количество: 1) Mega Seeder 2 (Количество: 1) Top Releaser 2 (Количество: 1)
Торрент-статистика

Создавать темы 24-Апр-2015 03:18

[Цитировать]

-Параллели / Parallels (2015) WEB-DLRip- Производство: США, Fox Digital Studios
Жанр: Фантастика, Боевик, Приключения
Режиссер: Кристофер Леоне
Продюсер: Лаура Хэркком, Кристофер Леоне, Девин Уорд
Актеры: Марк Гапка, Джессика Рот, Эрик Джангманн, Констанс Ву, Йорго Константин, Дави Джей, Майкл Монкс, Йен Касселберри, Б.Дж. Гроган, Лоррэйн Лебланк
Описание:
Дети в поисках пропавшего без вести отца оказываются на пороге ничем не примечательного здания, войдя в которое они выходят в разрушенный атомным взрывом город. Но все страшней чем может показаться, так как этот взрыв произошел много лет назад.

Дата мировой премьеры: 1 марта 2015
Продолжительность: 01:23:33
Качество видео: WEB-DLRip
Перевод: Двуголосый закадровый, любительский
Озвучка / Автор перевода: ColdFilm
Субтитры: Отсутствуют
Видеокодек: Xvid
Битрейт видео: ~2011 kbps
Размер кадра: 720x304
Аудиокодек: AC3 2.0
Битрейт аудио: 320 kbps

Mediainfo:

Общее
Полное имя                               : Parallels.2015.WEB-DLRip.avi
Формат                                   : AVI
Формат/Информация                        : Audio Video Interleave
Размер файла                             : 1,37 Гбайт
Продолжительность                        : 1 ч. 23 м.
Общий поток                              : 2340 Кбит/сек
Программа кодирования                    : VirtualDubMod 1.5.10.3 | [url=http://www.virtualdub-fr.org]www.virtualdub-fr.org[/url] || (build 2550/release)
Библиотека кодирования                   : VirtualDubMod build 2550/release
Видео
Идентификатор                            : 0
Формат                                   : MPEG-4 Visual
Профиль формата                          : Advanced Simple@L5
Параметр BVOP формата                    : 2
Параметр QPel формата                    : Нет
Параметр GMC формата                     : Без точки перехода
Параметр матрицы формата                 : Default (MPEG)
Идентификатор кодека                     : XVID
Идентификатор кодека/Подсказка           : XviD
Продолжительность                        : 1 ч. 23 м.
Битрейт                                  : 2011 Кбит/сек
Ширина                                   : 720 пикселей
Высота                                   : 304 пикселя
Соотношение сторон                       : 2,35:1
Частота кадров                           : 23,976 кадра/сек
Цветовое пространство                    : YUV
Субдискретизация насыщенности            : 4:2:0
Битовая глубина                          : 8 бит
Тип развёртки                            : Прогрессивная
Метод сжатия                             : С потерями
Бит/(Пиксели*Кадры)                      : 0.383
Размер потока                            : 1,17 Гбайт (86%)
Библиотека кодирования                   : XviD 1.2.1 (UTC 2008-12-04)
Аудио
Идентификатор                            : 1
Формат                                   : AC-3
Формат/Информация                        : Audio Coding 3
Расширение режима                        : CM (complete main)
Параметр Endianness формата              : Big
Идентификатор кодека                     : 2000
Продолжительность                        : 1 ч. 23 м.
Вид битрейта                             : Постоянный
Битрейт                                  : 320 Кбит/сек
Каналы                                   : 2 канала
Расположение каналов                     : Front: L R
Частота                                  : 48,0 КГц
Битовая глубина                          : 16 бит
Метод сжатия                             : С потерями
Задержка видео                           : 6 мс.
Размер потока                            : 191 Мбайт (14%)
Выравнивание                             : Разделение по промежуткам
Продолжительность промежутка             : 42  мс. (1,00 видеокадр)
Время предзагрузки промежутка            : 500  мс.
Скриншоты:

Дополнительные скриншоты:

[Профиль] [ЛС]
Кто просматривает тему:

Форум Тема Автор Размер
Фильмы (DVD 5/9) Параллельные миры (Ермек Аманшаев) [2013, Россия, Казахстан, мелодрама, DVD5] R5 Original Rus reversefile 3.85 GB
Зарубежные Параллельные миры в 3Д / Upside Down 3D (Хуан Диего Соланас / Juan Diego Solanas) [2011, Мелодрама, Фантастика, Фэнтези, BDrip-AVC] Half OverUnder / Вертикальная анаморфная стереопара TorrentFilm 13.2 GB
Зарубежные Параллельные миры в 3Д / Upside Down 3D (Хуан Диего Соланас / Juan Diego Solanas) [2012, Фэнтези, мелодрама, BDrip-AVC] Half SideBySide / Горизонтальная анаморфная стереопара TorrentFilm 9.29 GB
Зарубежные Параллельные миры в 3Д / Upside Down 3D (Хуан Диего Соланас / Juan Solanas) [2012, Канада, Франция, фэнтези, мелодрама, Blu-ray disc (custom) 1080p] BD3D [USA Transfer] TorrentFilm 45.75 GB
Зарубежные Параллельные миры в 3Д / Upside Down 3D (Хуан Диего Соланас / Juan Solanas) [2012, фэнтези, мелодрама, BDRip-AVC] Half OverUnder / Вертикальная анаморфная стереопара TorrentFilm 8.89 GB
Зарубежные сериалы Скользящие / Параллельные миры / Sliders [S02] (1996) DVDRemux Белочка 27.57 GB
Зарубежные сериалы Скользящие / Параллельные миры / Sliders [S03] (1997) DVDRemux Белочка 46.36 GB
Показать сообщения:    

Текущее время: Сегодня 02:25

Часовой пояс: GMT



Вы не можете начинать темы
Вы не можете отвечать на сообщения
Вы не можете редактировать свои сообщения
Вы не можете удалять свои сообщения
Вы не можете голосовать в опросах
Вы не можете прикреплять файлы к сообщениям
Вы не можете скачивать файлы