Паразит / Взращивание / Growth (Гэбриел Кауэн / Gabriel Cowan) [2010 г., США, ужасы, фантастика, триллер, BDRip] DVO + Original + Sub (Eng)

 
Автор Сообщение

painkiller ®

Стаж: 2 года 3 месяца

Сообщений: 582



Награды: Нет

Торрент-статистика

Создавать темы 14-Авг-2014 09:10

[Цитировать]

Паразит / ВзращиваниеGrowth-«A Killer Step in Evolution»- Год выпуска: 2010
Страна: США-Жанр: ужасы, фантастика, триллер
Продолжительность: 01:30:19
Перевод: Любительский (двухголосый, закадровый)
Субтитры: английские-Режиссер: Гэбриел Кауэн / Gabriel Cowan
Сценарий: Гэбриел Кауэн / Gabriel Cowan, Девин Зиммерман / Devin Zimmerman, Джон Суитц / John Suits, Чарльз Дальгрен / Charles Dahlgren, Мэттью Кауэн / Matthew Cowan
Продюсер: Юсеф Абу-Талеб / Yousef Abu-Taleb, Эмии Кларк / Amiee Clark, Моника Форузеш / Monica Forouzesh, Гэбриел Кауэн / Gabriel Cowan, Эйлин Адамс / Aileen Adams
Оператор: Гриша Аласади / Grisha Alasadi, Кэти Бойум / Katie Boyum, Марк Путнэм / Mark Putnam, Ричард Дж. Виалет / Richard J. Vialet
Композитор: Тим Зисмер / Tim Ziesmer-В ролях: Марсей Монро (Jamie Ackerman), Кристофер Шанд (Justin Roberts), Нора Киркпатрик (Kristin Daniels), Брайан Краузе (Marco), Ричард Рили (Larkin), Лу Ричардс (Dr. Macavire), Йен Патрик Уильямс (Mason Lane), Джил Хойлес (Amanda), Джессика Деркс (Liz), Роберт Пайк Дэниэл (Jake), Алекси Вассер (Sarah), Кейт Келтон (Gina)-Описание: В 1989 году биологи исследовательского центра, расположенного на отдалённом острове Каттиханк, изобрели способ улучшить человеческую природу с помощью уникальных существ-паразитов. Однако эксперименты в итоге окончились полным фиаско, в результате чего остров лишился трёх четвертей своего населения. 20 лет спустя Джеми Акерман, сумевшая пережить давнишнюю катастрофу, возвращается на остров, чтобы уладить дела с родительской собственностью. Вскоре ей предстаёт убедиться, что Каттиханк и его жители продолжают хранить свои мрачные тайны.-kinopoisk.ru: 3.784 (251)
imdb.com: 4.40 (2311)-Качество: BDRip / BDRemux
Контейнер: AVI
Видео: 720x304 (2.37:1), 23.976 fps, XviD build 65 ~1655 kbps avg, 0.32 bit/pixel
Аудио: 48 kHz, AC3 Dolby Digital, 2/0 (L,R) ch, ~192 kbps (Rus)
Аудио: 48 kHz, AC3 Dolby Digital, 3/2 (L,C,R,l,r) + LFE ch, ~448 kbps (Eng)-Сравнениеhttp://torrentfilm.net/forum/viewtopic.php?t=2733878 http://screenshotcomparison.com/comparison/84113
-

MediaInfo

General
Complete name                            : E:\Growth.2010.BDRip.DVO.All.Films.avi
Format                                   : AVI
Format/Info                              : Audio Video Interleave
File size                                : 1.46 GiB
Duration                                 : 1h 30mn
Overall bit rate                         : 2 311 Kbps
Movie name                               : Growth.2010.BDRip.DVO.All.Films
Director                                 : DIABLO93
Genre                                    : Thriller
Writing application                      : VirtualDubMod 1.5.10.3 | www.virtualdub-fr.org || (build 2550/release)
Original source form/Name                : Movie
Copyright                                : Rutracker.org (R.G. All Films)
Video
ID                                       : 0
Format                                   : MPEG-4 Visual
Format profile                           : Advanced Simple@L5
Format settings, BVOP                    : 2
Format settings, QPel                    : No
Format settings, GMC                     : No warppoints
Format settings, Matrix                  : Custom
Codec ID                                 : XVID
Codec ID/Hint                            : XviD
Duration                                 : 1h 30mn
Bit rate                                 : 1 657 Kbps
Width                                    : 720 pixels
Height                                   : 304 pixels
Display aspect ratio                     : 2.35:1
Frame rate                               : 23.976 fps
Color space                              : YUV
Chroma subsampling                       : 4:2:0
Bit depth                                : 8 bits
Scan type                                : Progressive
Compression mode                         : Lossy
Bits/(Pixel*Frame)                       : 0.316
Stream size                              : 1.05 GiB (72%)
Writing library                          : XviD 65
Audio #1
ID                                       : 1
Format                                   : AC-3
Format/Info                              : Audio Coding 3
Mode extension                           : CM (complete main)
Format settings, Endianness              : Big
Codec ID                                 : 2000
Duration                                 : 1h 30mn
Bit rate mode                            : Constant
Bit rate                                 : 192 Kbps
Channel(s)                               : 2 channels
Channel positions                        : Front: L R
Sampling rate                            : 48.0 KHz
Bit depth                                : 16 bits
Compression mode                         : Lossy
Stream size                              : 124 MiB (8%)
Alignment                                : Split accross interleaves
Interleave, duration                     : 42 ms (1.00 video frame)
Interleave, preload duration             : 500 ms
Audio #2
ID                                       : 2
Format                                   : AC-3
Format/Info                              : Audio Coding 3
Mode extension                           : CM (complete main)
Format settings, Endianness              : Big
Codec ID                                 : 2000
Duration                                 : 1h 30mn
Bit rate mode                            : Constant
Bit rate                                 : 448 Kbps
Channel(s)                               : 6 channels
Channel positions                        : Front: L C R, Side: L R, LFE
Sampling rate                            : 48.0 KHz
Bit depth                                : 16 bits
Compression mode                         : Lossy
Stream size                              : 289 MiB (19%)
Alignment                                : Split accross interleaves
Interleave, duration                     : 42 ms (1.00 video frame)
Interleave, preload duration             : 500 ms

-

Сэмпл[url=http://multi-up.com/987255][color=indigo][font="Georgia

Скачать[/url]Скриншоты"]
Релиз группы:
-
[Профиль] [ЛС]

Создавать темы 06-Авг-2015 23:17 (спустя 11 месяцев 23 дня)

Топик был перенесен из форума Фильмы до 2014 года в форум Фильмы до 2012 года
sergej644
 

Создавать темы 12-Июн-2016 07:54 (спустя 1 год 9 месяцев)

Топик был перенесен из форума Фильмы 2011 года в форум Фильмы 2010 года
Russian Mafia
 
Показать сообщения:    

Текущее время: Сегодня 05:15

Часовой пояс: GMT



Вы не можете начинать темы
Вы не можете отвечать на сообщения
Вы не можете редактировать свои сообщения
Вы не можете удалять свои сообщения
Вы не можете голосовать в опросах
Вы не можете прикреплять файлы к сообщениям
Вы не можете скачивать файлы