Парад Победы. Москва. Красная Площадь [2015, Военный парад, HDTV 1080i] [НТВ HD]

 
Автор Сообщение

TorrentFilm ®

Пол:

Стаж: 2 года

Сообщений: 7741



Награды: Нет

Торрент-статистика

Создавать темы 10-Май-2015 00:04

[Цитировать]

Парад Победы. Москва. Красная Площадь
Год выпуска: 2015
Страна: Россия
Студия: ВГТРК, Первый канал, НТВ
Жанр: Военный парад
Продолжительность: 01:23:02
Перевод: Не требуется
Русские субтитры: нет
Описание: Парад на Красной площади 9 мая 2015 года пройдёт в День Победы, в 70-ю годовщину со дня окончания Великой Отечественной войны. Начало парада в 10:00 по московскому времени. В параде примут участие более 16,5 тысячи военнослужащих, почти 200 единиц военной техники, а также порядка 140 вертолетов и самолетов. Прохождение механизированной колонны откроют исторические парадные расчеты в составе танка Т-34 и самоходной артиллерийской установки СУ-100. В составе колонны пройдут самоходные гаубицы "Мста-С" и новейшая "Коалиция-СВ", ракетный комплекс "Искандер", бронеавтомобили "Тигр" и "Тайфун", бронетранспортеры БТР-82А, танки Т-90, зенитные ракетные комплексы противовоздушной обороны "БУК-М2", "Тор-М2У", зенитные ракетно-пушечные комплексы "Панцирь-С1" и пусковые установки зенитной ракетной системы С-400 войск Воздушно-космической обороны. Впервые на Красной площади будут представлены новейшие образцы вооружения Воздушно-десантных войск БМД-4М и многоцелевой бронетранспортер "Ракушка", а также подвижный грунтовый ракетный комплекс Ракетных войск стратегического назначения "Ярс". Также в составе механизированной колонны пройдут перспективные образцы бронетехники, созданной на платформах "Армата", "Курганец", "Бумеранг".
Источник: собственный рип
Доп. информация: Релиз -

Рип чистый. Без посторонних надписей. Выкладывается как есть.
Качество: HDTV 1080i
Контейнер: TS
Видео кодек: AVC
Аудио кодек: MP2
Видео: 1920x1080 (16:9) 25.000 fps ~ 14.2 Mbpss, 0.275 bit/pixel
Аудио: MPEG Audio 48000Hz stereo 192 Кбит/сек

Скриншоты


MI

GeneralID : 1 (0x1)Complete name : J:\Победа\Парад Победы. Москва. Красная Площадь (2015, Военный парад, HDTV 1080i) (НТВ) (MYDIMKA).tsFormat : MPEG-TSFile size : 5.95 GiBDuration : 1h 23mnOverall bit rate mode : VariableOverall bit rate : 10.3 Mbps
VideoID : 201 (0xC9)Menu ID : 2201 (0x899)Format : AVCFormat/Info : Advanced Video CodecFormat profile : Main@L4.0Format settings, CABAC : YesFormat settings, ReFrames : 4 framesCodec ID : 27Duration : 1h 23mnBit rate : 9 560 KbpsWidth : 1 920 pixelsHeight : 1 080 pixelsDisplay aspect ratio : 16:9Frame rate : 25.000 fpsStandard : ComponentColor space : YUVChroma subsampling : 4:2:0Bit depth : 8 bitsScan type : InterlacedScan order : Top Field FirstBits/(Pixel*Frame) : 0.184Stream size : 5.54 GiB (93%)Color primaries : BT.709Transfer characteristics : BT.709Matrix coefficients : BT.709
AudioID : 301 (0x12D)Menu ID : 2201 (0x899)Format : MPEG AudioFormat version : Version 1Format profile : Layer 2Codec ID : 3Duration : 1h 23mnBit rate mode : ConstantBit rate : 192 KbpsChannel(s) : 2 channelsSampling rate : 48.0 KHzCompression mode : LossyDelay relative to video : -120msStream size : 114 MiB (2%)Language : English
[Профиль] [ЛС]
Показать сообщения:    

Текущее время: Сегодня 14:53

Часовой пояс: GMT



Вы не можете начинать темы
Вы не можете отвечать на сообщения
Вы не можете редактировать свои сообщения
Вы не можете удалять свои сообщения
Вы не можете голосовать в опросах
Вы не можете прикреплять файлы к сообщениям
Вы не можете скачивать файлы