Парад Победы + Возложение цветов к могиле Неизвестного солдата. Москва. Красная Площадь [2015, Военный парад, HDTV 1080i] [Первый HD]

 
Автор Сообщение

TorrentFilm ®

Пол:

Стаж: 2 года

Сообщений: 7741



Награды: Нет

Торрент-статистика

Создавать темы 13-Май-2015 00:03

[Цитировать]

Парад Победы + Возложение цветов к могиле Неизвестного солдата. Москва. Красная Площадь
Год выпуска: 2015
Страна: Россия
Студия: ВГТРК, Первый канал
Жанр: Военный парад
Продолжительность: 01:42:08
Перевод: Не требуется
Русские субтитры: нет
Описание: Парад на Красной площади 9 мая 2015 года пройдёт в День Победы, в 70-ю годовщину со дня окончания Великой Отечественной войны. Начало парада в 10:00 по московскому времени. В параде примут участие более 16,5 тысячи военнослужащих, почти 200 единиц военной техники, а также порядка 140 вертолетов и самолетов. Прохождение механизированной колонны откроют исторические парадные расчеты в составе танка Т-34 и самоходной артиллерийской установки СУ-100. В составе колонны пройдут самоходные гаубицы "Мста-С" и новейшая "Коалиция-СВ", ракетный комплекс "Искандер", бронеавтомобили "Тигр" и "Тайфун", бронетранспортеры БТР-82А, танки Т-90, зенитные ракетные комплексы противовоздушной обороны "БУК-М2", "Тор-М2У", зенитные ракетно-пушечные комплексы "Панцирь-С1" и пусковые установки зенитной ракетной системы С-400 войск Воздушно-космической обороны. Впервые на Красной площади будут представлены новейшие образцы вооружения Воздушно-десантных войск БМД-4М и многоцелевой бронетранспортер "Ракушка", а также подвижный грунтовый ракетный комплекс Ракетных войск стратегического назначения "Ярс". Также в составе механизированной колонны пройдут перспективные образцы бронетехники, созданной на платформах "Армата", "Курганец", "Бумеранг".
Источник: собственный рип
Доп. информация: Релиз -

Рип чистый. Без посторонних надписей. Выкладывается как есть.
Качество: HDTV 1080i
Контейнер: TS
Видео кодек: AVC
Аудио кодек: MP2, AC3
Видео: 1920x1080 (16:9) 25.000 fps ~ 12.2 Mbpss, 0.235 bit/pixel
Аудио 1: MPEG Audio 48000Hz stereo 224 Кбит/сек
Аудио 2: AC3, 6 channels, 48000Hz, 384 Кбит/сек

MI

GeneralID : 1 (0x1)Complete name : J:\Победа\Парад Победы + Возложение цветов к могиле Неизвестного солдата (2015, Военный парад, HDTV 1080i) (Первый HD) (MYDIMKA).tsFormat : MPEG-TSFile size : 8.89 GiBDuration : 1h 42mnOverall bit rate mode : VariableOverall bit rate : 12.5 Mbps
VideoID : 1902 (0x76E)Menu ID : 92 (0x5C)Format : AVCFormat/Info : Advanced Video CodecFormat profile : High@L4.0Format settings, CABAC : YesFormat settings, ReFrames : 3 framesCodec ID : 27Duration : 1h 42mnBit rate : 11.2 MbpsWidth : 1 920 pixelsHeight : 1 080 pixelsDisplay aspect ratio : 16:9Frame rate : 25.000 fpsStandard : ComponentColor space : YUVChroma subsampling : 4:2:0Bit depth : 8 bitsScan type : InterlacedScan order : Top Field FirstBits/(Pixel*Frame) : 0.217Stream size : 8.01 GiB (90%)Color primaries : BT.709Transfer characteristics : BT.709Matrix coefficients : BT.709
Audio #1ID : 2902 (0xB56)Menu ID : 92 (0x5C)Format : AC-3Format/Info : Audio Coding 3Mode extension : CM (complete main)Format settings, Endianness : BigCodec ID : 6Duration : 1h 42mnBit rate mode : ConstantBit rate : 384 KbpsChannel(s) : 6 channelsChannel positions : Front: L C R, Side: L R, LFESampling rate : 48.0 KHzBit depth : 16 bitsCompression mode : LossyStream size : 281 MiB (3%)Language : Russian
Audio #2ID : 2903 (0xB57)Menu ID : 92 (0x5C)Format : MPEG AudioFormat version : Version 1Format profile : Layer 2Codec ID : 3Duration : 1h 42mnBit rate mode : ConstantBit rate : 224 KbpsChannel(s) : 2 channelsSampling rate : 48.0 KHzCompression mode : LossyStream size : 164 MiB (2%)Language : Russian
TextID : 2904 (0xB58)-888Menu ID : 92 (0x5C)Format : Teletext SubtitleLanguage : Russian
MenuID : 902 (0x386)Menu ID : 92 (0x5C)Duration : 1h 42mnList : 1902 (0x76E) (AVC) / 2902 (0xB56) (AC-3, Russian) / 2903 (0xB57) (MPEG Audio, Russian) / 2904 (0xB58) ()Language : / Russian / Russian
[Профиль] [ЛС]
Показать сообщения:    

Текущее время: Сегодня 20:24

Часовой пояс: GMT



Вы не можете начинать темы
Вы не можете отвечать на сообщения
Вы не можете редактировать свои сообщения
Вы не можете удалять свои сообщения
Вы не можете голосовать в опросах
Вы не можете прикреплять файлы к сообщениям
Вы не можете скачивать файлы