Парадокс / Paradox (2016) WEB-DL 1080p | L2

 
Автор Сообщение

достали все ®

Пол:

Стаж: 1 год 8 месяцев

Сообщений: 6545



Награды: 12 (Подробнее)

Mega Seeder 4 (Количество: 1) Mega Releaser 2 (Количество: 1) За внесенный вклад в развитие сайта (Количество: 1)
Торрент-статистика

Создавать темы 17-Июн-2016 09:31

[Цитировать]

Информация о фильме
Название: Парадокс
Оригинальное название: Paradox
Год выхода: 2016
Жанр: боевик, драма
Режиссер: Майкл Херст
В ролях: Зои Белл, Мэлик Йоба, Адам Хасс, Бьорн Алекс Олсен, Брайан Флаккус, Майкл Аарон Миллиган, Стив Су, Даррен Бэйли, Джонатан Кэмп, Кортни Комптон
О фильме: Группа ученых работает над секретным проектом, который может позволить им путешествовать в будущее на небольшой отрезок времени. Для эксперимента они посылают одного из них ровно на час вперед. По возвращении тот умоляет, чтобы его заперли, потому что в течении этого часа их всех ждет смерть.

Выпущено: США / Benattar/Thomas Productions, Paradox Film Productions, Parkside Pictures, Tadross Media Group
Продолжительность: 01:29:51
Озвучивание: Любительское (двухголосое) [RecentFilms]
Файл
Формат: MKV
Качество: WEB-DL 1080p
Видео: MPEG-4 AVC, 4976 kb/s, 1920x1080
Аудио: Russian: AC3, 192 kb/s (2 ch) / English: AC3, 384 kb/s (6 ch)

MI

Format : Matroska
Format version : Version 2
File size : 3.55 GiB
Duration : 1h 29mn
Overall bit rate : 5 664 Kbps
Encoded date : UTC 2016-06-16 15:05:37
Writing application : mkvmerge v7.8.0 ('River Man') 32bit built on Apr 3 2015 12:11:22
Writing library : libebml v1.3.1 + libmatroska v1.4.2
Video
ID : 1
Format : AVC
Format/Info : Advanced Video Codec
Format profile : High@L4
Format settings, CABAC : Yes
Format settings, ReFrames : 4 frames
Codec ID : V_MPEG4/ISO/AVC
Duration : 1h 29mn
Bit rate : 4 976 Kbps
Width : 1 920 pixels
Height : 1 080 pixels
Display aspect ratio : 16:9
Frame rate mode : Constant
Frame rate : 23.976 fps
Color space : YUV
Chroma subsampling : 4:2:0
Bit depth : 8 bits
Scan type : Progressive
Bits/(Pixel*Frame) : 0.100
Stream size : 3.12 GiB (88%)
Language : English
Default : Yes
Forced : No
Color range : Limited
Color primaries : BT.709
Transfer characteristics : BT.709
Matrix coefficients : BT.709
Audio #1
ID : 2
Format : AC-3
Format/Info : Audio Coding 3
Mode extension : CM (complete main)
Format settings, Endianness : Big
Codec ID : A_AC3
Duration : 1h 29mn
Bit rate mode : Constant
Bit rate : 192 Kbps
Channel(s) : 2 channels
Channel positions : Front: L R
Sampling rate : 48.0 KHz
Bit depth : 16 bits
Compression mode : Lossy
Stream size : 123 MiB (3%)
Language : Russian
Default : Yes
Forced : No
Audio #2
ID : 3
Format : AC-3
Format/Info : Audio Coding 3
Mode extension : CM (complete main)
Format settings, Endianness : Big
Codec ID : A_AC3
Duration : 1h 29mn
Bit rate mode : Constant
Bit rate : 384 Kbps
Channel(s) : 6 channels
Channel positions : Front: L C R, Side: L R, LFE
Sampling rate : 48.0 KHz
Bit depth : 16 bits
Compression mode : Lossy
Stream size : 247 MiB (7%)
Language : English
Default : No
Forced : No
Menu
00:00:00.000 : en:Opening Sequence
00:06:06.000 : en:Trouble In Paradise
00:11:40.000 : en:Do Your Best Work
00:18:20.000 : en:Not Where, But When
00:23:34.000 : en:Bad News
00:29:09.000 : en:One Of Us
00:35:01.000 : en:Never Considered The 'Should'
00:40:39.000 : en:He Was Smelling Himself
00:46:25.000 : en:Your Cover's Blown
00:53:21.000 : en:We Can't Change Anything
00:58:51.000 : en:Max Devlin
01:04:34.000 : en:Press The Red Button
01:10:21.000 : en:You're Him
01:17:06.000 : en:Can't Cause A Paradox
01:21:49.000 : en:You Can't Escape Fate
01:27:56.000 : en:End Credits

Скриншоты



[Профиль] [ЛС]
Показать сообщения:    

Текущее время: Сегодня 20:44

Часовой пояс: GMT



Вы не можете начинать темы
Вы не можете отвечать на сообщения
Вы не можете редактировать свои сообщения
Вы не можете удалять свои сообщения
Вы не можете голосовать в опросах
Вы не можете прикреплять файлы к сообщениям
Вы не можете скачивать файлы