Парадокс / Paradox (Брентон Спенсер / Brenton Spencer) [2010, Канада, фантастика, триллер, ужасы, BDRip-AVC] MVO (ТВ3)

 
Автор Сообщение

painkiller ®

Стаж: 2 года 3 месяца

Сообщений: 582



Награды: Нет

Торрент-статистика

Создавать темы 15-Авг-2014 01:08

[Цитировать]

Парадокс / Paradox__________________________________________________________________________ Страна: Канада
Жанр: фантастика, триллер, ужасы
Год выпуска: 2010
Продолжительность: 01:26:05
__________________________________________________________
Перевод: Профессиональный (многоголосый закадровый) ТВ3
Cубтитры: нет
Режиссер: Брентон Спенсер / Brenton Spencer
__________________________________________________________
В ролях: Кевин Сорбо, Стеф Сонг, Кристофер Джадж, Алан С. Петерсон, Алисен Даун, Джерри Вассерман, Майкл Ст. Джон Смит, Дэвид Ричмонд-Пек
__________________________________________________________
Описание: В параллельной вселенной, где всем управляет магия, детектив Шон Нолт расследует серию загадочных убийств, совершенных при помощи невероятного для этого мира явления — науки. В поисках разгадки, Шон выходит на группу так называемых «прагматиков», уверенных, что наука, это не просто детские сказки и узнает о существовании другого измерения…
__________________________________________________________

__________________________________________________________
Качество видео: BDRip-AVC (источник: Гость / BDRemux / 1080p)
Формат видео: MKV
__________________________________________________________
Видео: MPEG-4 AVC, 2100 Кбит/с, 1024x578, 23.976 кадр/с
Аудио: 48 kHz, AC3 Dolby Digital, 2/0 (L,R) ch, ~192.00 kbps avg

MediaInfo

Общее
Уникальный идентификатор : 222553247743463989751517274465232525404 (0xA76E324798B84465BAC600E1150C985C)
Полное имя : C:\Users\к\Desktop\фильмы\Paradoks.2010.x264.BDRip.AVC.mkv
Формат : Matroska
Версия формата : Version 4 / Version 2
Размер файла : 1,38 Гбайт
Продолжительность : 1 ч. 26 м.
Общий поток : 2294 Кбит/сек
Дата кодирования : UTC 2014-02-18 17:26:23
Программа кодирования : mkvmerge v6.3.0 ('You can't stop me!') built on Jun 28 2013 20:09:41
Библиотека кодирования : libebml v1.3.0 + libmatroska v1.4.0
Видео
Идентификатор : 1
Формат : AVC
Формат/Информация : Advanced Video Codec
Профиль формата : High@L4.1
Параметр CABAC формата : Да
Параметр ReFrames формата : 9 кадров
Идентификатор кодека : V_MPEG4/ISO/AVC
Продолжительность : 1 ч. 26 м.
Битрейт : 2100 Кбит/сек
Ширина : 1024 пикселя
Высота : 578 пикселей
Соотношение сторон : 16:9
Режим частоты кадров : Постоянный
Частота кадров : 23,976 кадра/сек
Цветовое пространство : YUV
Субдискретизация насыщенности : 4:2:0
Битовая глубина : 8 бит
Тип развёртки : Прогрессивная
Бит/(Пиксели*Кадры) : 0.148
Размер потока : 1,24 Гбайт (90%)
Заголовок : Paradoks.2010.x264.BDRip.AVC.MediaClub
Библиотека кодирования : x264 core 130 r2273 b3065e6
Настройки программы : cabac=1 / ref=9 / deblock=1:-2:-2 / analyse=0x3:0x133 / me=umh / subme=11 / psy=1 / psy_rd=1.00:0.10 / mixed_ref=1 / me_range=32 / chroma_me=1 / trellis=2 / 8x8dct=1 / cqm=0 / deadzone=21,11 / fast_pskip=0 / chroma_qp_offset=-3 / threads=3 / lookahead_threads=1 / sliced_threads=0 / nr=0 / decimate=0 / interlaced=0 / bluray_compat=0 / constrained_intra=0 / bframes=8 / b_pyramid=2 / b_adapt=2 / b_bias=0 / direct=3 / weightb=1 / open_gop=0 / weightp=2 / keyint=240 / keyint_min=23 / scenecut=40 / intra_refresh=0 / rc=2pass / mbtree=0 / bitrate=2100 / ratetol=1.0 / qcomp=0.60 / qpmin=0 / qpmax=69 / qpstep=4 / cplxblur=20.0 / qblur=0.5 / ip_ratio=1.40 / pb_ratio=1.30 / aq=1:1.00
Язык : English
Default : Да
Forced : Нет
Аудио
Идентификатор : 2
Формат : AC-3
Формат/Информация : Audio Coding 3
Расширение режима : CM (complete main)
Параметр Endianness формата : Big
Идентификатор кодека : A_AC3
Продолжительность : 1 ч. 26 м.
Вид битрейта : Постоянный
Битрейт : 192 Кбит/сек
Каналы : 2 канала
Расположение каналов : Front: L R
Частота : 48,0 КГц
Битовая глубина : 16 бит
Метод сжатия : С потерями
Размер потока : 118 Мбайт (8%)
Заголовок : MVO_RUS
Язык : Russian
Default : Да
Forced : Нет

Скриншоты

[Профиль] [ЛС]

Создавать темы 06-Авг-2015 23:11 (спустя 11 месяцев 22 дня)

Топик был перенесен из форума Фильмы до 2014 года в форум Фильмы до 2012 года
sergej644
 

Создавать темы 12-Июн-2016 07:54 (спустя 1 год 9 месяцев)

Топик был перенесен из форума Фильмы 2011 года в форум Фильмы 2010 года
Russian Mafia
 
Показать сообщения:    

Текущее время: Сегодня 15:37

Часовой пояс: GMT



Вы не можете начинать темы
Вы не можете отвечать на сообщения
Вы не можете редактировать свои сообщения
Вы не можете удалять свои сообщения
Вы не можете голосовать в опросах
Вы не можете прикреплять файлы к сообщениям
Вы не можете скачивать файлы