Парадоксы в стиле рок (Ефим Гамбург) [1982, Рисованный мультфильм, SATRip]

 
Автор Сообщение

TorrentFilm ®

Пол:

Стаж: 2 года

Сообщений: 7741



Награды: Нет

Торрент-статистика

Создавать темы 01-Янв-2016 00:21

[Цитировать]

Парадоксы в стиле рок
Страна: СССР
Жанр: Рисованный мультфильм
Продолжительность: 00:09:41
Год выпуска: 1982
Русские субтитры: нет
Режиссёр: Ефим Гамбург
Описание: Мультфильм для взрослых с музыкальным сопровождением группы «Рок-ателье» Криса Кельме.
Фильм состоит из пяти иронических новелл, посвящённых глобальным проблемам современности: «Экология», «Демография», «Акселерация», «НТР», «Стресс».
Доп. информация: „Союзмультфильм“
Сценарист: М.Ликсперов,Е.Гамбург
Художники-постановщики: Иосиф Куроян, Наталия Богомолова, Марина Восканьянц, Александр Мазаев, Н. Сапожников, Олег Комаров
Оператор: Александр Пекарь, Михаил Друян
Директор: Николай Евлюхин
Релиз группы:
Качество: SATRip
Формат: AVI
Видео: 640x480 (1.33:1), 25 fps, XviD MPEG-4 ~2299 kbps avg, 0.30 bit/pixel
Аудио: 48 kHz, AC3 Dolby Digital, 2/0 (L,R) ch, ~192.00 kbps avg
Субтитры: нет

Подробные технические данные

Format : AVIFormat/Info : Audio Video InterleaveFile size : 174 MiBDuration : 9mn 41sOverall bit rate : 2 501 KbpsWriting application : VirtualDubModRus 1.5.10.2 (build 2542/release)Copyright : Rutracker.orgComment : SATRip by dvdss
VideoID : 0Format : MPEG-4 VisualFormat profile : Advanced Simple@L5Format settings, BVOP : 2Format settings, QPel : NoFormat settings, GMC : No warppointsFormat settings, Matrix : CustomCodec ID : XVIDCodec ID/Hint : XviDDuration : 9mn 41sBit rate : 2 299 KbpsWidth : 640 pixelsHeight : 480 pixelsDisplay aspect ratio : 5:4Original display aspect ratio : 4:3Frame rate : 25.000 fpsColor space : YUVChroma subsampling : 4:2:0Bit depth : 8 bitsScan type : ProgressiveCompression mode : LossyBits/(Pixel*Frame) : 0.299Stream size : 160 MiB (92%)Writing library : XviD 65
AudioID : 1Format : AC-3Format/Info : Audio Coding 3Mode extension : CM (complete main)Format settings, Endianness : BigCodec ID : 2000Duration : 9mn 41sBit rate mode : ConstantBit rate : 192 KbpsChannel(s) : 2 channelsChannel positions : Front: L RSampling rate : 48.0 KHzBit depth : 16 bitsCompression mode : LossyStream size : 13.3 MiB (8%)Alignment : Split accross interleavesInterleave, duration : 40 ms (1.00 video frame)Interleave, preload duration : 500 ms

Скриншоты

[Профиль] [ЛС]
Показать сообщения:    

Текущее время: Сегодня 20:25

Часовой пояс: GMT



Вы не можете начинать темы
Вы не можете отвечать на сообщения
Вы не можете редактировать свои сообщения
Вы не можете удалять свои сообщения
Вы не можете голосовать в опросах
Вы не можете прикреплять файлы к сообщениям
Вы не можете скачивать файлы