Параграф 78 [01-02 из 02] (2007) DVDRip-AVC

 
Автор Сообщение

Russian Mafia ®

Пол:

Стаж: 1 год 8 месяцев

Сообщений: 4257



Награды: 10 (Подробнее)

Mega Seeder 2 (Количество: 1) Mega Seeder 4 (Количество: 1) Mega Seeder 1 (Количество: 1)
Торрент-статистика

Создавать темы 05-Авг-2016 16:22

[Цитировать]

Параграф 78: Фильм первый (2007)
Информация о фильме
Название: Параграф 78: Фильм первый
Год выхода: 2007
Жанр: фантастика, боевик, триллер
Режиссер: Михаил Хлебородов
В ролях: Гоша Куценко, Владимир Вдовиченков, Григорий Сиятвинда, Слава, Станислав Дужников, Азиз Бейшеналиев, Анатолий Белый, Юсуп Бахшиев, Михаил Ефремов, Александр Тютин
О фильме: В недалеком будущем команда специального назначения получает новое важное задание, которое становится для давно уже отошедших от дел спецназовцев единственной возможностью снова увидеть бывших соратников по опасным миссиям. Тем более, что очень важные вопросы их личных взаимоотношений так и остались до конца не решенными.
Они так и не приучились называть друг друга по именам, им куда ближе прижившиеся когда-то на службе оперативные псевдонимы, но время и опыт меняют даже тех суперпрофессионалов, что всю жизнь привыкли подчиняться незыблемому и непререкаемому Параграфу. И на сверхсекретной ракетной базе, куда приводит команду высочайший приказ, им придется лицом к лицу столкнуться не только с внешней опасностью, но и друг с другом…

Выпущено: MB Productions
Продолжительность: 01:27:42
Перевод: Оригинал (лицензия)
Файл
Кодек: x264
Качество: DVDRip-AVC
Видео: 1024x436 (2,35:1), 25 fps, 3120 kbps
Аудио: AC-3, 6 ch, 448 kbps
Скачать: сэмпл
Скриншоты

MI

Общее
Уникальный идентификатор : 201575237855388618024013228750968234764 (0x97A5FA89AD069C1287D42473D5E8A30C)
Полное имя : Paragraf.78.film.1.2007.DVDRip.AVC.Rus.mkv
Формат : Matroska
Версия формата : Version 2
Размер файла : 2,19 Гбайт
Продолжительность : 1 ч. 27 м.
Общий поток : 3569 Кбит/сек
Название фильма : Параграф 78: Фильм первый (2007)
Дата кодирования : UTC 2013-06-17 16:40:52
Программа кодирования : mkvmerge v5.8.0 ('No Sleep / Pillow') built on Sep 2 2012 15:37:04
Библиотека кодирования : libebml v1.2.3 + libmatroska v1.3.0
Видео
Идентификатор : 1
Формат : AVC
Формат/Информация : Advanced Video Codec
Профиль формата : High@L4.1
Параметр CABAC формата : Да
Параметр ReFrames формата : 9 кадров
Идентификатор кодека : V_MPEG4/ISO/AVC
Продолжительность : 1 ч. 27 м.
Битрейт : 3120 Кбит/сек
Ширина : 1024 пикселя
Высота : 436 пикселей
Соотношение сторон : 2,35:1
Частота кадров : 25,000 кадров/сек
Цветовое пространство : YUV
Субдискретизация насыщенности : 4:2:0
Битовая глубина : 8 бит
Тип развёртки : Прогрессивная
Бит/(Пиксели*Кадры) : 0.280
Размер потока : 1,87 Гбайт (85%)
Заголовок : Release by AlexKa
Библиотека кодирования : x264 core 133 r2334 a3ac64b
Настройки программы : cabac=1 / ref=9 / deblock=1:-3:-3 / analyse=0x3:0x133 / me=umh / subme=11 / psy=1 / psy_rd=1.00:0.00 / mixed_ref=1 / me_range=32 / chroma_me=1 / trellis=2 / 8x8dct=1 / cqm=0 / deadzone=21,11 / fast_pskip=0 / chroma_qp_offset=-2 / threads=12 / lookahead_threads=1 / sliced_threads=0 / nr=0 / decimate=0 / interlaced=0 / bluray_compat=0 / constrained_intra=0 / bframes=3 / b_pyramid=2 / b_adapt=2 / b_bias=0 / direct=3 / weightb=1 / open_gop=0 / weightp=2 / keyint=250 / keyint_min=25 / scenecut=40 / intra_refresh=0 / rc=2pass / mbtree=0 / bitrate=3120 / ratetol=1.0 / qcomp=0.60 / qpmin=0 / qpmax=69 / qpstep=4 / cplxblur=20.0 / qblur=0.5 / ip_ratio=1.40 / pb_ratio=1.30 / aq=1:1.00
Язык : Russian
Аудио
Идентификатор : 2
Формат : AC-3
Формат/Информация : Audio Coding 3
Расширение режима : CM (complete main)
Идентификатор кодека : A_AC3
Продолжительность : 1 ч. 27 м.
Вид битрейта : Постоянный
Битрейт : 448 Кбит/сек
Каналы : 6 каналов
Расположение каналов : Front: L C R, Side: L R, LFE
Частота : 48,0 КГц
Битовая глубина : 16 бит
Метод сжатия : С потерями
Размер потока : 281 Мбайт (13%)
Заголовок : Rus
Язык : Russian
Меню
00:00:00.000 : :Chapter 01
00:07:40.800 : :Chapter 02
00:14:45.000 : :Chapter 03
00:23:31.800 : :Chapter 04
00:28:45.000 : :Chapter 05
00:36:34.800 : :Chapter 06
00:44:27.600 : :Chapter 07
00:52:54.600 : :Chapter 08
01:02:07.800 : :Chapter 09
01:09:31.800 : :Chapter 10
01:18:42.000 : :Chapter 11
01:22:04.800 : :Chapter 12
Параграф 78: Фильм второй (2007)
Информация о фильме
Название: Параграф 78: Фильм второй
Год выхода: 2007
Жанр: фантастика, боевик, триллер
Режиссер: Михаил Хлебородов
В ролях: Гоша Куценко, Владимир Вдовиченков, Григорий Сиятвинда, Слава, Азиз Бейшеналиев, Станислав Дужников, Анатолий Белый, Юсуп Бахшиев, Виктор Вержбицкий, Сергей Шакуров
О фильме: Выводы Доктора неутешительны: вирус мутировал, старый антидот не действует, и всем участникам операции придется навсегда остаться на базе. В свои права вступает «Параграф 78 Экспедиционного Устава» — «Если причина поражения неустранима, а возвращение представляет потенциальную угрозу, группа подлежит самоликвидации».
Всем им довольно скоро придется погибнуть, превратившись перед этим в обезумевших кровожадных мутантов. Вирус должен окончательно сломить их всего через несколько часов. Но даже в этой ситуации никуда не деться сложным внутренним противоречиям между однополчанами, И в первую очередь — давней истории очень непростых взаимоотношений между Гудвином, Скифом и Лисой…

Выпущено: MB Productions
Продолжительность: 01:29:53
Перевод: Оригинал (лицензия)
Файл
Кодек: x264
Качество: DVDRip-AVC
Видео: 1024x436 (2,35:1), 25 fps, 3034 kbps
Аудио: AC-3, 6 ch, 448 kbps
Скачать: сэмпл
Скриншоты

MI

Общее
Уникальный идентификатор : 186801636200825693417425565993726168509 (0x8C88AFBD484AD39698AA048DA68CCDBD)
Полное имя : Paragraf.78.film.2.2007.DVDRip.AVC.Rus.mkv
Формат : Matroska
Версия формата : Version 2
Размер файла : 2,19 Гбайт
Продолжительность : 1 ч. 29 м.
Общий поток : 3482 Кбит/сек
Название фильма : Параграф 78: Фильм второй (2007)
Дата кодирования : UTC 2013-06-17 16:42:18
Программа кодирования : mkvmerge v5.8.0 ('No Sleep / Pillow') built on Sep 2 2012 15:37:04
Библиотека кодирования : libebml v1.2.3 + libmatroska v1.3.0
Видео
Идентификатор : 1
Формат : AVC
Формат/Информация : Advanced Video Codec
Профиль формата : High@L4.1
Параметр CABAC формата : Да
Параметр ReFrames формата : 9 кадров
Идентификатор кодека : V_MPEG4/ISO/AVC
Продолжительность : 1 ч. 29 м.
Битрейт : 3034 Кбит/сек
Ширина : 1024 пикселя
Высота : 436 пикселей
Соотношение сторон : 2,35:1
Частота кадров : 25,000 кадров/сек
Цветовое пространство : YUV
Субдискретизация насыщенности : 4:2:0
Битовая глубина : 8 бит
Тип развёртки : Прогрессивная
Бит/(Пиксели*Кадры) : 0.272
Размер потока : 1,86 Гбайт (85%)
Заголовок : Release by AlexKa
Библиотека кодирования : x264 core 133 r2334 a3ac64b
Настройки программы : cabac=1 / ref=9 / deblock=1:-3:-3 / analyse=0x3:0x133 / me=umh / subme=11 / psy=1 / psy_rd=1.00:0.00 / mixed_ref=1 / me_range=32 / chroma_me=1 / trellis=2 / 8x8dct=1 / cqm=0 / deadzone=21,11 / fast_pskip=0 / chroma_qp_offset=-2 / threads=12 / lookahead_threads=1 / sliced_threads=0 / nr=0 / decimate=0 / interlaced=0 / bluray_compat=0 / constrained_intra=0 / bframes=3 / b_pyramid=2 / b_adapt=2 / b_bias=0 / direct=3 / weightb=1 / open_gop=0 / weightp=2 / keyint=250 / keyint_min=25 / scenecut=40 / intra_refresh=0 / rc=2pass / mbtree=0 / bitrate=3034 / ratetol=1.0 / qcomp=0.60 / qpmin=0 / qpmax=69 / qpstep=4 / cplxblur=20.0 / qblur=0.5 / ip_ratio=1.40 / pb_ratio=1.30 / aq=1:1.00
Язык : Russian
Аудио
Идентификатор : 2
Формат : AC-3
Формат/Информация : Audio Coding 3
Расширение режима : CM (complete main)
Идентификатор кодека : A_AC3
Продолжительность : 1 ч. 29 м.
Вид битрейта : Постоянный
Битрейт : 448 Кбит/сек
Каналы : 6 каналов
Расположение каналов : Front: L C R, Side: L R, LFE
Частота : 48,0 КГц
Битовая глубина : 16 бит
Метод сжатия : С потерями
Размер потока : 288 Мбайт (13%)
Заголовок : Rus
Язык : Russian
Меню
00:00:00.000 : :Chapter 01
00:06:30.000 : :Chapter 02
00:17:24.000 : :Chapter 03
00:26:15.000 : :Chapter 04
00:31:13.800 : :Chapter 05
00:37:51.000 : :Chapter 06
00:51:33.000 : :Chapter 07
00:58:42.000 : :Chapter 08
01:02:48.000 : :Chapter 09
01:09:37.800 : :Chapter 10
01:17:04.800 : :Chapter 11
01:23:39.600 : :Chapter 12

x264

1
x264 [info]: frame I:1526 Avg QP:14.98 size: 60242
x264 [info]: frame P:41288 Avg QP:17.44 size: 26335
x264 [info]: frame B:88737 Avg QP:19.06 size: 9831
2
x264 [info]: frame I:1403 Avg QP:15.88 size: 58876
x264 [info]: frame P:41751 Avg QP:18.01 size: 25310
x264 [info]: frame B:91671 Avg QP:19.73 size: 9872
[Профиль] [ЛС]
Показать сообщения:    

Текущее время: Сегодня 14:28

Часовой пояс: GMT



Вы не можете начинать темы
Вы не можете отвечать на сообщения
Вы не можете редактировать свои сообщения
Вы не можете удалять свои сообщения
Вы не можете голосовать в опросах
Вы не можете прикреплять файлы к сообщениям
Вы не можете скачивать файлы