Папуа: Секретный остров каннибалов / Papua: The secret island of the cannibals (Питер Лорд / Peter Lord) [2013, Документальный, флора, фауна, BDRip]

 
Автор Сообщение

reversefile ®

Пол:

Стаж: 4 года 5 месяцев

Сообщений: 842

Откуда: ReverseFile.org



Награды: Нет

Торрент-статистика

Создавать темы 24-Июл-2014 17:59

[Цитировать]

Папуа: Секретный остров каннибалов
Papua: The secret island of the cannibals
7.08- Год выпуска: 2013
Страна: Великобритания, 3D Safari LC
Жанр: Документальный, флора, фауна
Продолжительность: 01:01:20
Перевод: Одноголосый (закадровый)
Русские субтитры: нет-Режиссер: Питер Лорд / Peter Lord-Описание: Мы много знаем о доисторическом периоде, но увидеть «каменный век» своими глазами, можно совершив видеопутешествие в один из самых загадочных уголков Земли — Папуа Новую Гвинею. Каменные топоры и наконечники, уникальная природа джунглей, десятки племен, славящихся каннибализмом — это обычная жизнь Гвинеи, которая у цивилизованного человека вызывает острый интерес и прилив адреналина. Голубые лагуны и пустынные пляжи, не знающие границ, непременно восхитят вас своей красотой, а фантастическое многообразие животного мира, усилят впечатления от просмотра.-
Качество: BDRip
Формат: AVI
Видео: 720x400 (16:9), 23.976 fps, XviD build 64 ~1206 kbps avg, 0.17 bit/pixel
Аудио: 48.0 kHz, AC3 Dolby Digital, 3/2 (L,C,R,l,r) LFE ch, ~384.00 kbps avg

MediaInfo


ОбщееПолное имя : A:\Фильмы\Папуа.Секретный.остров.каннибалов.2013.BDRip.avi
Формат : AVI
Формат/Информация : Audio Video Interleave
Размер файла : 702 Мбайт
Продолжительность : 1 ч. 1 м.
Общий поток : 1599 Кбит/сек
Программа кодирования : VirtualDubMod 1.5.10.3 | www.virtualdub-fr.org || (build 2550/release)
Библиотека кодирования : VirtualDubMod build 2550/release
Видео
Идентификатор : 0
Формат : MPEG-4 Visual
Профиль формата : Advanced Simple@L5
Параметр BVOP формата : 2
Параметр QPel формата : Нет
Параметр GMC формата : Без точки перехода
Параметр матрицы формата : Default (H.263)
Режим смешивания : Сжатый битовый поток
Идентификатор кодека : XVID
Идентификатор кодека/Подсказка : XviD
Продолжительность : 1 ч. 1 м.
Битрейт : 1206 Кбит/сек
Ширина : 720 пикселей
Высота : 400 пикселей
Соотношение сторон : 16:9
Частота кадров : 23,976 кадра/сек
Цветовое пространство : YUV
Субдискретизация насыщенности : 4:2:0
Битовая глубина : 8 бит
Тип развёртки : Прогрессивная
Метод сжатия : С потерями
Бит/(Пиксели*Кадры) : 0.175
Размер потока : 529 Мбайт (75%)
Библиотека кодирования : XviD 64
Аудио
Идентификатор : 1
Формат : AC-3
Формат/Информация : Audio Coding 3
Расширение режима : CM (complete main)
Параметр Endianness формата : Big
Идентификатор кодека : 2000
Продолжительность : 1 ч. 1 м.
Вид битрейта : Постоянный
Битрейт : 384 Кбит/сек
Каналы : 6 каналов
Расположение каналов : Front: L C R, Side: L R, LFE
Частота : 48,0 КГц
Битовая глубина : 16 бит
Метод сжатия : С потерями
Размер потока : 168 Мбайт (24%)
Выравнивание : Разделение по промежуткам
Продолжительность промежутка : 42 мс. (1,00 видеокадр)
Время предзагрузки промежутка : 500 мс.

Скриншоты


[Профиль] [ЛС]
Кто просматривает тему:

Показать сообщения:    

Текущее время: Сегодня 14:02

Часовой пояс: GMT



Вы не можете начинать темы
Вы не можете отвечать на сообщения
Вы не можете редактировать свои сообщения
Вы не можете удалять свои сообщения
Вы не можете голосовать в опросах
Вы не можете прикреплять файлы к сообщениям
Вы не можете скачивать файлы