Папе снова 17 / 17 Again (Бёрр Стирс / Burr Steers) [2009, США, фэнтези, драма, мелодрама, комедия, BDRip-AVC] Dub + AVO (Гаврилов) + Original (Eng) + Subs (Rus, Eng)

 
Автор Сообщение

painkiller ®

Стаж: 2 года 3 месяца

Сообщений: 582



Награды: Нет

Торрент-статистика

Создавать темы 15-Авг-2014 10:16

[Цитировать]

Папе снова 17 / 17 Again«Кто сказал, что молодость уходит?»- Страна: США
Жанр: фэнтези, драма, мелодрама, комедия
Год выпуска: 2009
Продолжительность: 01:41:55-Перевод №1: Профессиональный (полное дублирование)
Перевод №2: Авторский (одноголосый закадровый) - Гаврилов
Оригинальная аудиодорога: English
Cубтитры: Russian (forced+full), English (full) - *.srt
Навигация по главам: отсутствуют-Режиссер: Бёрр Стирс / Burr Steers
В ролях: Зак Эфрон, Лесли Манн, Томас Леннон, Мэттью Перри, Тайлер Стилман, Эллисон Миллер, Стерлинг Найт, Мишель Трахтенберг, Адам Грегори, Хантер Пэрриш-Описание
Вы хотели бы начать жизнь сначала? Отец двоих детей Майк О`Доннелл хотел бы. И вот внезапно ему выпадает волшебный шанс вернуться в родную школу Хэйден Хай. Теперь Майк — звезда баскетбольной команды, мечта девчонок и одноклассник собственных отпрысков, превратившийся из нерадивого папаши в отличного друга.
-
Download sample-Качество видео: BDRip-AVC |
Формат видео: MKV-Видео: 1152x480 (2.40:1), 23.976 fps, x264 ~4145 kbps avg, 0.305 bit/pixel
Аудио №1: 48.0 kHz, AC3 Dolby Digital, 3/2 (L,C,R,l,r) + LFE ch, ~448 kbps | Профессиональный (полное дублирование)
Аудио №2: 48.0 kHz, AC3 Dolby Digital, 3/2 (L,C,R,l,r) + LFE ch, ~448 kbps | Авторский (одноголосый закадровый) - Гаврилов
Аудио №3: 48.0 kHz, AC3 Dolby Digital, 3/2 (L,C,R,l,r) + LFE ch, ~448 kbps | English-

Notes[font="Georgia

За дорожку Гаврилова спасибо спонсорам форума hdtrackerMediaInfo"]
General
Unique ID : 228206878503555329962993108485074452049 (0xABAF0BCC104942ECA06241D950B1FE51)
Complete name : D:\Фильмы\Рипы\17 Again.2009.BDRip-AVC.eFK.mkv
Format : Matroska
Format version : Version 4 / Version 2
File size : 3.91 GiB
Duration : 1h 41mn
Overall bit rate : 5 491 Kbps
Movie name : 17 Again (2009) - Release for rutracker
Encoded date : UTC 2014-05-29 20:55:19
Writing application : mkvmerge v6.1.0 ('Old Devil') built on Mar 4 2013 09:10:42
Writing library : libebml v1.3.0 + libmatroska v1.4.0
Attachment : Yes
Video
ID : 1
Format : AVC
Format/Info : Advanced Video Codec
Format profile : High@L4.1
Format settings, CABAC : Yes
Format settings, ReFrames : 15 frames
Codec ID : V_MPEG4/ISO/AVC
Duration : 1h 41mn
Bit rate : 4 038 Kbps
Width : 1 152 pixels
Height : 480 pixels
Display aspect ratio : 2.40:1
Frame rate mode : Constant
Frame rate : 23.976 fps
Color space : YUV
Chroma subsampling : 4:2:0
Bit depth : 8 bits
Scan type : Progressive
Bits/(Pixel*Frame) : 0.305
Stream size : 2.88 GiB (74%)
Title : eFK
Writing library : x264 core 142 r2431kMod ac76440
Encoding settings : cabac=1 / ref=15 / deblock=1:-3:-3 / analyse=0x3:0x133 / me=umh / subme=11 / psy=1 / fade_compensate=0.00 / psy_rd=1.00:0.00 / mixed_ref=1 / me_range=48 / chroma_me=1 / trellis=2 / 8x8dct=1 / cqm=0 / deadzone=21,11 / fast_pskip=1 / chroma_qp_offset=-2 / threads=8 / lookahead_threads=2 / sliced_threads=0 / nr=0 / decimate=1 / interlaced=0 / bluray_compat=0 / constrained_intra=0 / fgo=0 / bframes=14 / b_pyramid=2 / b_adapt=2 / b_bias=0 / direct=3 / weightb=1 / open_gop=0 / weightp=2 / keyint=250 / keyint_min=23 / scenecut=40 / intra_refresh=0 / rc_lookahead=60 / rc=crf / mbtree=0 / crf=16.9000 / qcomp=0.60 / qpmin=0 / qpmax=69 / qpstep=4 / vbv_maxrate=50000 / vbv_bufsize=62500 / crf_max=0.0 / nal_hrd=none / filler=0 / ip_ratio=1.40 / pb_ratio=1.30 / aq=3:0.77 / zones=139477,146621,q=30
Default : Yes
Forced : No
Audio #1
ID : 2
Format : AC-3
Format/Info : Audio Coding 3
Mode extension : CM (complete main)
Format settings, Endianness : Big
Codec ID : A_AC3
Duration : 1h 41mn
Bit rate mode : Constant
Bit rate : 448 Kbps
Channel count : 6 channels
Channel positions : Front: L C R, Side: L R, LFE
Sampling rate : 48.0 KHz
Bit depth : 16 bits
Compression mode : Lossy
Stream size : 327 MiB (8%)
Title : Dub
Language : Russian
Default : Yes
Forced : No
Audio #2
ID : 3
Format : AC-3
Format/Info : Audio Coding 3
Mode extension : CM (complete main)
Format settings, Endianness : Big
Codec ID : A_AC3
Duration : 1h 41mn
Bit rate mode : Constant
Bit rate : 448 Kbps
Channel count : 6 channels
Channel positions : Front: L C R, Side: L R, LFE
Sampling rate : 48.0 KHz
Bit depth : 16 bits
Compression mode : Lossy
Stream size : 327 MiB (8%)
Title : AVO (Gavrilov)
Language : Russian
Default : No
Forced : No
Audio #3
ID : 4
Format : AC-3
Format/Info : Audio Coding 3
Mode extension : CM (complete main)
Format settings, Endianness : Big
Codec ID : A_AC3
Duration : 1h 41mn
Bit rate mode : Constant
Bit rate : 448 Kbps
Channel count : 6 channels
Channel positions : Front: L C R, Side: L R, LFE
Sampling rate : 48.0 KHz
Bit depth : 16 bits
Compression mode : Lossy
Stream size : 327 MiB (8%)
Language : English
Default : No
Forced : No
Text #1
ID : 5
Format : UTF-8
Codec ID : S_TEXT/UTF8
Codec ID/Info : UTF-8 Plain Text
Title : forced
Language : Russian
Default : Yes
Forced : No
Text #2
ID : 6
Format : UTF-8
Codec ID : S_TEXT/UTF8
Codec ID/Info : UTF-8 Plain Text
Title : full
Language : Russian
Default : No
Forced : No
Text #3
ID : 7
Format : UTF-8
Codec ID : S_TEXT/UTF8
Codec ID/Info : UTF-8 Plain Text
Title : full
Language : English
Default : No
Forced : No

x264 log

x264 [info]: frame I:1437 Avg QP:16.78 size: 89536 PSNR Mean Y:46.10 U:49.53 V:50.26 Avg:46.90 Global:46.34
x264 [info]: frame P:31731 Avg QP:18.71 size: 37716 PSNR Mean Y:44.51 U:49.55 V:50.36 Avg:45.39 Global:44.41
x264 [info]: frame B:113454 Avg QP:20.28 size: 16248 PSNR Mean Y:43.63 U:48.82 V:49.90 Avg:44.61 Global:43.76
x264 [info]: consecutive B-frames: 2.2% 2.0% 5.9% 29.3% 12.5% 40.0% 3.0% 2.2% 0.8% 0.9% 0.3% 0.3% 0.2% 0.2% 0.2%
x264 [info]: mb I I16..4: 2.5% 79.1% 18.5%
x264 [info]: mb P I16..4: 0.4% 17.1% 1.5% P16..4: 25.4% 32.0% 15.2% 2.3% 0.2% skip: 6.0%
x264 [info]: mb B I16..4: 0.1% 3.0% 0.1% B16..8: 35.3% 24.1% 5.4% direct: 6.7% skip:25.3% L0:41.8% L1:42.2% BI:16.1%
x264 [info]: 8x8 transform intra:89.7% inter:57.8%
x264 [info]: direct mvs spatial:99.9% temporal:0.1%
x264 [info]: coded y,uvDC,uvAC intra: 96.4% 92.9% 81.9% inter: 36.0% 25.5% 6.2%
x264 [info]: i16 v,h,dc,p: 39% 11% 4% 46%
x264 [info]: i8 v,h,dc,ddl,ddr,vr,hd,vl,hu: 9% 7% 11% 10% 13% 13% 12% 12% 12%
x264 [info]: i4 v,h,dc,ddl,ddr,vr,hd,vl,hu: 11% 7% 4% 9% 16% 16% 13% 12% 12%
x264 [info]: i8c dc,h,v,p: 44% 20% 19% 17%
x264 [info]: Weighted P-Frames: Y:3.3% UV:1.8%
x264 [info]: ref P L0: 44.3% 10.8% 17.2% 6.4% 5.1% 3.6% 3.2% 1.8% 1.6% 1.3% 1.2% 1.0% 0.9% 0.8% 0.8% 0.1%
x264 [info]: ref B L0: 74.2% 10.6% 4.8% 2.8% 1.8% 1.4% 1.2% 0.7% 0.6% 0.5% 0.5% 0.4% 0.2% 0.1%
x264 [info]: ref B L1: 93.1% 6.9%
x264 [info]: SSIM Mean Y:0.9806366 (17.130db)
x264 [info]: PSNR Mean Y:43.846 U:48.983 V:50.006 Avg:44.805 Global:43.911 kb/s:4145.45
x264 [total]: encoded 146622 frames, 8.19 fps, 4145.45 kb/s
[Профиль] [ЛС]

Создавать темы 06-Авг-2015 23:11 (спустя 11 месяцев 22 дня)

Топик был перенесен из форума Фильмы до 2014 года в форум Фильмы до 2012 года
sergej644
 

Создавать темы 12-Июн-2016 08:48 (спустя 1 год 9 месяцев)

Топик был перенесен из форума Фильмы 2011 года в форум Фильмы 2009 года
Russian Mafia
 
Кто просматривает тему:

Показать сообщения:    

Текущее время: Сегодня 14:02

Часовой пояс: GMT



Вы не можете начинать темы
Вы не можете отвечать на сообщения
Вы не можете редактировать свои сообщения
Вы не можете удалять свои сообщения
Вы не можете голосовать в опросах
Вы не можете прикреплять файлы к сообщениям
Вы не можете скачивать файлы