Папаши / Les compères (1983) HDTVRip

 
Автор Сообщение

sergej644 ®

Пол:

Стаж: 4 года 11 месяцев

Сообщений: 6045

Откуда: Soviet Union



Награды: Нет

Торрент-статистика

Создавать темы 23-Июл-2015 22:01

[Цитировать]

Страна: Франция
Производство: DD Productions, EFVE, Fideline Films
Жанр: комедия, криминал
Год выпуска: 1983
Продолжительность: 01:25:33
Перевод: Профессиональный (дублированный) Советский дубляж
Оригинальная аудиодорожка: нет
Cубтитры: нет
Режиссер: Франсис Вебер / Francis Veber
В ролях:
Пьер Ришар, Жерар Депардье, Стефан Бьерри, Анни Дюпре, Мишель Омон, Жан-Жак Шеффер, Филипп Хорсан, Ролан Бланш, Жак Франц, Морис Барье...
Роли дублировали:
Александр Белявский, Вадим Спиридонов, Александр Рыжков, Нонна Терентьева, Рудольф Панков...
Описание:
У Кристины Мартен была очень бурная молодость. Когда из дома сбегает её семнадцатилетний сын Тристан, на его поиски бросаются сразу два предполагаемых отца. Вернуть подростка в отчий дом пытаются учитель Франсуа Пиньон и журналист Жан Люка.
Но, как выяснилось, сам Тристан не готов к двойной порции отцовской любви. Он всячески пытается уйти от погони. Непокорного подростка всё же доставляют к Кристине, под конвоем сразу двух папаш. Но в этот момент выясняется, что настоящим отцом Тристана является Поль — ещё одно увлечение ветреной мадемуазель Мартен...- -Исходник: HDTVRip 1080p
Тип релиза: HDTVRip
Контейнер: AVI
Видео: 704x416 (1,692:1), 25 fps, XviD ~ 1080 kbps avg, 0.147 bit/pixel
Аудио: 48 kHz, MP3 2.0, 128 kbps
Раздача от:

MediaInfo

Общее
Полное имя : Papashi.1983.HDTVRip_[New-team]_by_AVP_Studio.avi
Формат : AVI
Формат/Информация : Audio Video Interleave
Размер файла : 745 Мбайт
Продолжительность : 1 ч. 25 м.
Общий поток : 1218 Кбит/сек
Программа кодирования : VirtualDubModRus 1.5.10.2 (build 2542/release)
Библиотека кодирования : VirtualDubMod build 2542/release
Видео
Идентификатор : 0
Формат : MPEG-4 Visual
Профиль формата : Advanced Simple@L5
Параметр BVOP формата : 1
Параметр QPel формата : Нет
Параметр GMC формата : Без точки перехода
Параметр матрицы формата : Выборочная
Идентификатор кодека : XVID
Идентификатор кодека/Подсказка : XviD
Продолжительность : 1 ч. 25 м.
Битрейт : 1080 Кбит/сек
Ширина : 704 пикселя
Высота : 416 пикселей
Соотношение сторон : 1,692
Частота кадров : 25,000 кадров/сек
Цветовое пространство : YUV
Субдискретизация насыщенности : 4:2:0
Битовая глубина : 8 бит
Тип развёртки : Прогрессивная
Метод сжатия : С потерями
Бит/(Пиксели*Кадры) : 0.147
Размер потока : 661 Мбайт (89%)
Библиотека кодирования : XviD 73
Аудио
Идентификатор : 1
Формат : MPEG Audio
Версия формата : Version 1
Профиль формата : Layer 3
Идентификатор кодека : 55
Идентификатор кодека/Подсказка : MP3
Продолжительность : 1 ч. 25 м.
Вид битрейта : Постоянный
Битрейт : 128 Кбит/сек
Каналы : 2 канала
Частота : 48,0 КГц
Метод сжатия : С потерями
Размер потока : 78,3 Мбайт (11%)
Выравнивание : Соединение по промежуткам
Продолжительность промежутка : 40 мс. (1,00 видеокадр)
Время предзагрузки промежутка : 504 мс.
Библиотека кодирования : LAME3.99r
Настройки программы : -m s -V 4 -q 2 -lowpass 17 -b 128

Скриншоты

[Профиль] [ЛС]

Создавать темы 06-Авг-2015 22:23 (спустя 14 дней)

Топик был перенесен из форума Фильмы до 2014 года в форум Фильмы до 2012 года
sergej644
 
Показать сообщения:    

Текущее время: Сегодня 00:20

Часовой пояс: GMT



Вы не можете начинать темы
Вы не можете отвечать на сообщения
Вы не можете редактировать свои сообщения
Вы не можете удалять свои сообщения
Вы не можете голосовать в опросах
Вы не можете прикреплять файлы к сообщениям
Вы не можете скачивать файлы